  0
SECTION
  2
HEADER
  9
$ACADVER
  1
AC1015
  9
$ACADMAINTVER
 70
    20
  9
$DWGCODEPAGE
  3
ANSI_1252
  9
$INSBASE
 10
0.0
 20
0.0
 30
0.0
  9
$EXTMIN
 10
-0.0402459035867651
 20
-0.0181263349739993
 30
-0.0000000349181948
  9
$EXTMAX
 10
659.459322986439
 20
210.0173506464261
 30
0.0000000814935747
  9
$LIMMIN
 10
0.0
 20
0.0
  9
$LIMMAX
 10
210.0
 20
297.0000000000001
  9
$ORTHOMODE
 70
     1
  9
$REGENMODE
 70
     1
  9
$FILLMODE
 70
     1
  9
$QTEXTMODE
 70
     0
  9
$MIRRTEXT
 70
     0
  9
$LTSCALE
 40
10.0
  9
$ATTMODE
 70
     1
  9
$TEXTSIZE
 40
2.5
  9
$TRACEWID
 40
1.0
  9
$TEXTSTYLE
  7
RomanS
  9
$CLAYER
  8
Bemaßung
  9
$CELTYPE
  6
ByLayer
  9
$CECOLOR
 62
   256
  9
$CELTSCALE
 40
1.0
  9
$DISPSILH
 70
     0
  9
$DIMSCALE
 40
1.0
  9
$DIMASZ
 40
2.5
  9
$DIMEXO
 40
0.625
  9
$DIMDLI
 40
3.75
  9
$DIMRND
 40
0.0
  9
$DIMDLE
 40
0.0
  9
$DIMEXE
 40
1.25
  9
$DIMTP
 40
0.0
  9
$DIMTM
 40
0.0
  9
$DIMTXT
 40
2.5
  9
$DIMCEN
 40
2.5
  9
$DIMTSZ
 40
0.0
  9
$DIMTOL
 70
     0
  9
$DIMLIM
 70
     0
  9
$DIMTIH
 70
     0
  9
$DIMTOH
 70
     0
  9
$DIMSE1
 70
     0
  9
$DIMSE2
 70
     0
  9
$DIMTAD
 70
     1
  9
$DIMZIN
 70
     8
  9
$DIMBLK
  1
Oblique
  9
$DIMASO
 70
     1
  9
$DIMSHO
 70
     1
  9
$DIMPOST
  1

  9
$DIMAPOST
  1

  9
$DIMALT
 70
     0
  9
$DIMALTD
 70
     3
  9
$DIMALTF
 40
0.03937007874016
  9
$DIMLFAC
 40
1.0
  9
$DIMTOFL
 70
     1
  9
$DIMTVP
 40
0.0
  9
$DIMTIX
 70
     0
  9
$DIMSOXD
 70
     0
  9
$DIMSAH
 70
     0
  9
$DIMBLK1
  1

  9
$DIMBLK2
  1

  9
$DIMSTYLE
  2
IDEAL Holz
  9
$DIMCLRD
 70
     0
  9
$DIMCLRE
 70
     0
  9
$DIMCLRT
 70
     0
  9
$DIMTFAC
 40
1.0
  9
$DIMGAP
 40
0.625
  9
$DIMJUST
 70
     0
  9
$DIMSD1
 70
     0
  9
$DIMSD2
 70
     0
  9
$DIMTOLJ
 70
     0
  9
$DIMTZIN
 70
     8
  9
$DIMALTZ
 70
     0
  9
$DIMALTTZ
 70
     0
  9
$DIMUPT
 70
     0
  9
$DIMDEC
 70
     1
  9
$DIMTDEC
 70
     1
  9
$DIMALTU
 70
     2
  9
$DIMALTTD
 70
     3
  9
$DIMTXSTY
  7
RomanS
  9
$DIMAUNIT
 70
     0
  9
$DIMADEC
 70
     0
  9
$DIMALTRND
 40
0.0
  9
$DIMAZIN
 70
     0
  9
$DIMDSEP
 70
    44
  9
$DIMATFIT
 70
     3
  9
$DIMFRAC
 70
     0
  9
$DIMLDRBLK
  1
Oblique
  9
$DIMLUNIT
 70
     2
  9
$DIMLWD
 70
    -2
  9
$DIMLWE
 70
    -2
  9
$DIMTMOVE
 70
     0
  9
$LUNITS
 70
     2
  9
$LUPREC
 70
     4
  9
$SKETCHINC
 40
1.0
  9
$FILLETRAD
 40
0.0
  9
$AUNITS
 70
     0
  9
$AUPREC
 70
     0
  9
$MENU
  1
.
  9
$ELEVATION
 40
0.0
  9
$PELEVATION
 40
0.0
  9
$THICKNESS
 40
0.0
  9
$LIMCHECK
 70
     0
  9
$CHAMFERA
 40
0.0
  9
$CHAMFERB
 40
0.0
  9
$CHAMFERC
 40
0.0
  9
$CHAMFERD
 40
0.0
  9
$SKPOLY
 70
     0
  9
$TDCREATE
 40
2454312.596884572
  9
$TDUCREATE
 40
2454312.555217905
  9
$TDUPDATE
 40
2455979.673947396
  9
$TDUUPDATE
 40
2455979.632280729
  9
$TDINDWG
 40
0.6978186574
  9
$TDUSRTIMER
 40
0.6977513889
  9
$USRTIMER
 70
     1
  9
$ANGBASE
 50
0.0
  9
$ANGDIR
 70
     0
  9
$PDMODE
 70
     0
  9
$PDSIZE
 40
0.0
  9
$PLINEWID
 40
0.0
  9
$SPLFRAME
 70
     0
  9
$SPLINETYPE
 70
     6
  9
$SPLINESEGS
 70
     8
  9
$HANDSEED
  5
5C6D
  9
$SURFTAB1
 70
     6
  9
$SURFTAB2
 70
     6
  9
$SURFTYPE
 70
     6
  9
$SURFU
 70
     6
  9
$SURFV
 70
     6
  9
$UCSBASE
  2

  9
$UCSNAME
  2

  9
$UCSORG
 10
0.0
 20
0.0
 30
0.0
  9
$UCSXDIR
 10
1.0
 20
0.0
 30
0.0
  9
$UCSYDIR
 10
0.0
 20
1.0
 30
0.0
  9
$UCSORTHOREF
  2

  9
$UCSORTHOVIEW
 70
     0
  9
$UCSORGTOP
 10
0.0
 20
0.0
 30
0.0
  9
$UCSORGBOTTOM
 10
0.0
 20
0.0
 30
0.0
  9
$UCSORGLEFT
 10
0.0
 20
0.0
 30
0.0
  9
$UCSORGRIGHT
 10
0.0
 20
0.0
 30
0.0
  9
$UCSORGFRONT
 10
0.0
 20
0.0
 30
0.0
  9
$UCSORGBACK
 10
0.0
 20
0.0
 30
0.0
  9
$PUCSBASE
  2

  9
$PUCSNAME
  2

  9
$PUCSORG
 10
0.0
 20
0.0
 30
0.0
  9
$PUCSXDIR
 10
1.0
 20
0.0
 30
0.0
  9
$PUCSYDIR
 10
0.0
 20
1.0
 30
0.0
  9
$PUCSORTHOREF
  2

  9
$PUCSORTHOVIEW
 70
     0
  9
$PUCSORGTOP
 10
0.0
 20
0.0
 30
0.0
  9
$PUCSORGBOTTOM
 10
0.0
 20
0.0
 30
0.0
  9
$PUCSORGLEFT
 10
0.0
 20
0.0
 30
0.0
  9
$PUCSORGRIGHT
 10
0.0
 20
0.0
 30
0.0
  9
$PUCSORGFRONT
 10
0.0
 20
0.0
 30
0.0
  9
$PUCSORGBACK
 10
0.0
 20
0.0
 30
0.0
  9
$USERI1
 70
     0
  9
$USERI2
 70
     0
  9
$USERI3
 70
     0
  9
$USERI4
 70
     0
  9
$USERI5
 70
     0
  9
$USERR1
 40
0.0
  9
$USERR2
 40
0.0
  9
$USERR3
 40
0.0
  9
$USERR4
 40
0.0
  9
$USERR5
 40
0.0
  9
$WORLDVIEW
 70
     1
  9
$SHADEDGE
 70
     3
  9
$SHADEDIF
 70
    70
  9
$TILEMODE
 70
     1
  9
$MAXACTVP
 70
    64
  9
$PINSBASE
 10
0.0
 20
0.0
 30
0.0
  9
$PLIMCHECK
 70
     0
  9
$PEXTMIN
 10
-6.004607636397848
 20
-6.003304854981195
 30
-0.0000000000112498
  9
$PEXTMAX
 10
290.9275923322271
 20
203.9765328215
 30
0.0000000000002956
  9
$PLIMMIN
 10
-5.999987840652463
 20
-6.0
  9
$PLIMMAX
 10
291.0318419933318
 20
203.9733276367186
  9
$UNITMODE
 70
     0
  9
$VISRETAIN
 70
     1
  9
$PLINEGEN
 70
     0
  9
$PSLTSCALE
 70
     1
  9
$TREEDEPTH
 70
  3020
  9
$CMLSTYLE
  2
Standard
  9
$CMLJUST
 70
     0
  9
$CMLSCALE
 40
20.0
  9
$PROXYGRAPHICS
 70
     1
  9
$MEASUREMENT
 70
     1
  9
$CELWEIGHT
370
    -1
  9
$ENDCAPS
280
     0
  9
$JOINSTYLE
280
     0
  9
$LWDISPLAY
290
     0
  9
$INSUNITS
 70
     4
  9
$HYPERLINKBASE
  1

  9
$STYLESHEET
  1
GRAYSCALE.CTB
  9
$XEDIT
290
     1
  9
$CEPSNTYPE
380
     0
  9
$PSTYLEMODE
290
     1
  9
$FINGERPRINTGUID
  2
{8CA26089-D00B-4314-BB02-0A8E677C406F}
  9
$VERSIONGUID
  2
{FB1FD8AA-3199-4E14-A9F6-9E66F804D548}
  9
$EXTNAMES
290
     1
  9
$PSVPSCALE
 40
1.0
  9
$OLESTARTUP
290
     0
  0
ENDSEC
  0
SECTION
  2
CLASSES
  0
CLASS
  1
ACDBDICTIONARYWDFLT
  2
AcDbDictionaryWithDefault
  3
ObjectDBX Classes
 90
        0
280
     0
281
     0
  0
CLASS
  1
DICTIONARYVAR
  2
AcDbDictionaryVar
  3
ObjectDBX Classes
 90
        0
280
     0
281
     0
  0
CLASS
  1
TABLESTYLE
  2
AcDbTableStyle
  3
ObjectDBX Classes
 90
     4095
280
     0
281
     0
  0
CLASS
  1
MATERIAL
  2
AcDbMaterial
  3
ObjectDBX Classes
 90
     1153
280
     0
281
     0
  0
CLASS
  1
VISUALSTYLE
  2
AcDbVisualStyle
  3
ObjectDBX Classes
 90
     4095
280
     0
281
     0
  0
CLASS
  1
SORTENTSTABLE
  2
AcDbSortentsTable
  3
ObjectDBX Classes
 90
        0
280
     0
281
     0
  0
CLASS
  1
DIMASSOC
  2
AcDbDimAssoc
  3
"AcDbDimAssoc|Product Desc:     AcDim ARX App For Dimension|Company:          Autodesk, Inc.|WEB Address:      www.autodesk.com"
 90
        0
280
     0
281
     0
  0
CLASS
  1
ACAD_EVALUATION_GRAPH
  2
AcDbEvalGraph
  3
ObjectDBX Classes
 90
    33921
280
     0
281
     0
  0
CLASS
  1
ACAECUSTOBJ
  2
AcAeEditorObj
  3
AcAeEditorObj
 90
    33792
280
     0
281
     0
  0
CLASS
  1
ACDB_DYNAMICBLOCKPURGEPREVENTER_VERSION
  2
AcDbDynamicBlockPurgePreventer
  3
ObjectDBX Classes
 90
    33921
280
     0
281
     0
  0
CLASS
  1
ACDB_BLOCKREPRESENTATION_DATA
  2
AcDbBlockRepresentationData
  3
ObjectDBX Classes
 90
    33921
280
     0
281
     0
  0
CLASS
  1
SCALE
  2
AcDbScale
  3
ObjectDBX Classes
 90
     1153
280
     0
281
     0
  0
CLASS
  1
MLEADERSTYLE
  2
AcDbMLeaderStyle
  3
ACDB_MLEADERSTYLE_CLASS
 90
     4095
280
     0
281
     0
  0
CLASS
  1
EXACXREFPANELOBJECT
  2
ExAcXREFPanelObject
  3
EXAC_ESW
 90
    33793
280
     0
281
     0
  0
CLASS
  1
NPOCOLLECTION
  2
AcDbImpNonPersistentObjectsCollection
  3
ObjectDBX Classes
 90
    33921
280
     0
281
     0
  0
CLASS
  1
CELLSTYLEMAP
  2
AcDbCellStyleMap
  3
ObjectDBX Classes
 90
     1152
280
     0
281
     0
  0
CLASS
  1
ACDBPLACEHOLDER
  2
AcDbPlaceHolder
  3
ObjectDBX Classes
 90
        0
280
     0
281
     0
  0
CLASS
  1
LAYOUT
  2
AcDbLayout
  3
ObjectDBX Classes
 90
        0
280
     0
281
     0
  0
ENDSEC
  0
SECTION
  2
TABLES
  0
TABLE
  2
VPORT
  5
8
330
0
100
AcDbSymbolTable
 70
     1
  0
VPORT
  5
EA
330
8
100
AcDbSymbolTableRecord
100
AcDbViewportTableRecord
  2
*Active
 70
     0
 10
0.0
 20
0.0
 11
1.0
 21
1.0
 12
329.7095385414262
 22
104.999612155726
 13
0.0
 23
0.0
 14
10.0
 24
10.0
 15
10.0
 25
10.0
 16
0.0
 26
0.0
 36
1.0
 17
0.0
 27
0.0
 37
0.0
 40
300.3885609076288
 41
2.203480589022757
 42
50.0
 43
0.0
 44
0.0
 50
0.0
 51
0.0
 71
     0
 72
  1000
 73
     1
 74
     3
 75
     0
 76
     0
 77
     0
 78
     0
281
     0
 65
     1
110
0.0
120
0.0
130
0.0
111
1.0
121
0.0
131
0.0
112
0.0
122
1.0
132
0.0
 79
     0
146
0.0
1001
ACAD_NAV_VCDISPLAY
1070
     3
  0
ENDTAB
  0
TABLE
  2
LTYPE
  5
5
330
0
100
AcDbSymbolTable
 70
     3
  0
LTYPE
  5
14
330
5
100
AcDbSymbolTableRecord
100
AcDbLinetypeTableRecord
  2
ByBlock
 70
     0
  3

 72
    65
 73
     0
 40
0.0
  0
LTYPE
  5
15
330
5
100
AcDbSymbolTableRecord
100
AcDbLinetypeTableRecord
  2
ByLayer
 70
     0
  3

 72
    65
 73
     0
 40
0.0
  0
LTYPE
  5
16
330
5
100
AcDbSymbolTableRecord
100
AcDbLinetypeTableRecord
  2
Continuous
 70
     0
  3
Solid line
 72
    65
 73
     0
 40
0.0
  0
LTYPE
  5
59A
330
5
100
AcDbSymbolTableRecord
100
AcDbLinetypeTableRecord
  2
VERDECKT
 70
     0
  3
Verdeckt __ __ __ __ __ __ __ __ __ __ __ __ __
 72
    65
 73
     2
 40
0.375
 49
0.25
 74
     0
 49
-0.125
 74
     0
  0
LTYPE
  5
212B
330
5
100
AcDbSymbolTableRecord
100
AcDbLinetypeTableRecord
  2
STRICHPUNKT
 70
     0
  3
Strichpunkt __ . __ . __ . __ . __ . __ . __ . 
 72
    65
 73
     4
 40
1.0
 49
0.5
 74
     0
 49
-0.25
 74
     0
 49
0.0
 74
     0
 49
-0.25
 74
     0
  0
ENDTAB
  0
TABLE
  2
LAYER
  5
2
102
{ACAD_XDICTIONARY
360
5AF
102
}
330
0
100
AcDbSymbolTable
 70
    15
  0
LAYER
  5
10
102
{ACAD_XDICTIONARY
360
5B71
102
}
330
2
100
AcDbSymbolTableRecord
100
AcDbLayerTableRecord
  2
0
 70
     0
 62
     7
  6
Continuous
370
    -3
390
F
  0
LAYER
  5
59C
330
2
100
AcDbSymbolTableRecord
100
AcDbLayerTableRecord
  2
Defpoints
 70
     0
 62
     7
  6
Continuous
290
     0
370
    -3
390
F
  0
LAYER
  5
59D
102
{ACAD_XDICTIONARY
360
5B73
102
}
330
2
100
AcDbSymbolTableRecord
100
AcDbLayerTableRecord
  2
Glas
 70
     0
 62
   150
  6
Continuous
370
    -3
390
F
  0
LAYER
  5
59F
102
{ACAD_XDICTIONARY
360
5B75
102
}
330
2
100
AcDbSymbolTableRecord
100
AcDbLayerTableRecord
  2
Dichtungen
 70
     0
 62
     6
  6
Continuous
370
    -3
390
F
1001
AcAecLayerStandard
1000

1000

  0
LAYER
  5
5A0
102
{ACAD_XDICTIONARY
360
5B77
102
}
330
2
100
AcDbSymbolTableRecord
100
AcDbLayerTableRecord
  2
Glasleiste
 70
     0
 62
    84
  6
Continuous
370
    -3
390
F
  0
LAYER
  5
5A1
102
{ACAD_XDICTIONARY
360
5B79
102
}
330
2
100
AcDbSymbolTableRecord
100
AcDbLayerTableRecord
  2
Blendrahmen
 70
     0
 62
     5
  6
Continuous
370
    -3
390
F
1001
AcAecLayerStandard
1000

1000

  0
LAYER
  5
5A2
102
{ACAD_XDICTIONARY
360
5B7B
102
}
330
2
100
AcDbSymbolTableRecord
100
AcDbLayerTableRecord
  2
Flügelrahmen
 70
     0
 62
    84
  6
Continuous
370
    -3
390
F
1001
AcAecLayerStandard
1000

1000

  0
LAYER
  5
5A3
102
{ACAD_XDICTIONARY
360
5B7D
102
}
330
2
100
AcDbSymbolTableRecord
100
AcDbLayerTableRecord
  2
Silikon
 70
     0
 62
    10
  6
Continuous
370
    -3
390
F
1001
AcAecLayerStandard
1000

1000

  0
LAYER
  5
212C
102
{ACAD_XDICTIONARY
360
5B7F
102
}
330
2
100
AcDbSymbolTableRecord
100
AcDbLayerTableRecord
  2
Schraffur
 70
     0
 62
   251
  6
Continuous
370
    -3
390
F
1001
AcAecLayerStandard
1000

1000

  0
LAYER
  5
212D
102
{ACAD_XDICTIONARY
360
5B81
102
}
330
2
100
AcDbSymbolTableRecord
100
AcDbLayerTableRecord
  2
Schlitz-Zapfen
 70
     0
 62
   253
  6
STRICHPUNKT
370
    -3
390
F
1001
AcAecLayerStandard
1000

1000

  0
LAYER
  5
35E3
102
{ACAD_XDICTIONARY
360
5B83
102
}
330
2
100
AcDbSymbolTableRecord
100
AcDbLayerTableRecord
  2
Bemaßung
 70
     0
 62
     1
  6
Continuous
370
    -3
390
F
1001
AcAecLayerStandard
1000

1000

  0
LAYER
  5
40BC
102
{ACAD_XDICTIONARY
360
5B85
102
}
330
2
100
AcDbSymbolTableRecord
100
AcDbLayerTableRecord
  2
Fräsung
 70
     0
 62
   252
  6
VERDECKT
370
    -3
390
F
1001
AcAecLayerStandard
1000

1000

  0
LAYER
  5
4402
102
{ACAD_XDICTIONARY
360
5B87
102
}
330
2
100
AcDbSymbolTableRecord
100
AcDbLayerTableRecord
  2
Beschläge
 70
     0
 62
   144
  6
Continuous
370
    -3
390
F
1001
AcAecLayerStandard
1000

1000

  0
LAYER
  5
47DC
102
{ACAD_XDICTIONARY
360
5B89
102
}
330
2
100
AcDbSymbolTableRecord
100
AcDbLayerTableRecord
  2
Achse
 70
     0
 62
     7
  6
STRICHPUNKT
370
    -3
390
F
1001
AcAecLayerStandard
1000

1000

  0
LAYER
  5
597D
102
{ACAD_XDICTIONARY
360
5B8B
102
}
330
2
100
AcDbSymbolTableRecord
100
AcDbLayerTableRecord
  2
Aluhalter
 70
     0
 62
     3
  6
Continuous
370
    -3
390
F
1001
AcAecLayerStandard
1000

1000

  0
ENDTAB
  0
TABLE
  2
STYLE
  5
3
330
0
100
AcDbSymbolTable
 70
     2
  0
STYLE
  5
11
330
3
100
AcDbSymbolTableRecord
100
AcDbTextStyleTableRecord
  2
Standard
 70
     0
 40
0.0
 41
1.0
 50
0.0
 71
     0
 42
2.5
  3
txt
  4

  0
STYLE
  5
5AB
330
3
100
AcDbSymbolTableRecord
100
AcDbTextStyleTableRecord
  2
RomanS
 70
     0
 40
0.0
 41
0.7
 50
0.0
 71
     0
 42
2.5
  3
romans.shx
  4

  0
ENDTAB
  0
TABLE
  2
VIEW
  5
6
330
0
100
AcDbSymbolTable
 70
     0
  0
ENDTAB
  0
TABLE
  2
UCS
  5
7
330
0
100
AcDbSymbolTable
 70
     0
  0
ENDTAB
  0
TABLE
  2
APPID
  5
9
330
0
100
AcDbSymbolTable
 70
    11
  0
APPID
  5
12
330
9
100
AcDbSymbolTableRecord
100
AcDbRegAppTableRecord
  2
ACAD
 70
     0
  0
APPID
  5
9E
330
9
100
AcDbSymbolTableRecord
100
AcDbRegAppTableRecord
  2
ACAD_PSEXT
 70
     0
  0
APPID
  5
5AE
330
9
100
AcDbSymbolTableRecord
100
AcDbRegAppTableRecord
  2
AcAecLayerStandard
 70
     0
  0
APPID
  5
212E
330
9
100
AcDbSymbolTableRecord
100
AcDbRegAppTableRecord
  2
AcDbBlockRepETag
 70
     0
  0
APPID
  5
212F
330
9
100
AcDbSymbolTableRecord
100
AcDbRegAppTableRecord
  2
AcDbDynamicBlockGUID
 70
     0
  0
APPID
  5
29A6
330
9
100
AcDbSymbolTableRecord
100
AcDbRegAppTableRecord
  2
ACAUTHENVIRON
 70
     0
  0
APPID
  5
29C5
330
9
100
AcDbSymbolTableRecord
100
AcDbRegAppTableRecord
  2
AcDbDynamicBlockTrueName
 70
     0
  0
APPID
  5
29E7
330
9
100
AcDbSymbolTableRecord
100
AcDbRegAppTableRecord
  2
AcDbBlockRepBTag
 70
     0
  0
APPID
  5
4704
330
9
100
AcDbSymbolTableRecord
100
AcDbRegAppTableRecord
  2
ACAD_EXEMPT_FROM_CAD_STANDARDS
 70
     0
  0
APPID
  5
5B92
330
9
100
AcDbSymbolTableRecord
100
AcDbRegAppTableRecord
  2
ACAD_NAV_VCDISPLAY
 70
     0
  0
APPID
  5
5C1A
330
9
100
AcDbSymbolTableRecord
100
AcDbRegAppTableRecord
  2
ACAD_MLEADERVER
 70
     0
  0
ENDTAB
  0
TABLE
  2
DIMSTYLE
  5
A
330
0
100
AcDbSymbolTable
 70
     2
100
AcDbDimStyleTable
 71
     1
340
4654
  0
DIMSTYLE
105
5AD
330
A
100
AcDbSymbolTableRecord
100
AcDbDimStyleTableRecord
  2
Standard
 70
     0
 41
0.5
 42
1.0
 43
2.0
 44
0.2
140
1.5
147
1.0
172
     1
271
     1
272
     1
340
11
371
     5
372
     5
  0
DIMSTYLE
105
4654
102
{ACAD_REACTORS
330
48D9
330
4922
330
495E
330
4976
330
498E
330
522B
330
522C
330
522D
330
522E
330
522F
330
5230
330
5231
330
5465
330
57D0
330
5836
330
5843
102
}
330
A
100
AcDbSymbolTableRecord
100
AcDbDimStyleTableRecord
  2
IDEAL Holz
 70
     0
 41
2.5
 42
0.625
 43
3.75
 44
1.25
 73
     0
 74
     0
 77
     1
 78
     8
140
2.5
141
2.5
143
0.03937007874016
147
0.625
171
     3
172
     1
271
     1
272
     1
274
     3
278
    44
283
     0
284
     8
340
5AB
341
3654
342
3654
  0
ENDTAB
  0
TABLE
  2
BLOCK_RECORD
  5
1
330
0
100
AcDbSymbolTable
 70
    22
  0
BLOCK_RECORD
  5
1F
102
{ACAD_XDICTIONARY
360
1979
102
}
330
1
100
AcDbSymbolTableRecord
100
AcDbBlockTableRecord
  2
*Model_Space
340
22
  0
BLOCK_RECORD
  5
D2
330
1
100
AcDbSymbolTableRecord
100
AcDbBlockTableRecord
  2
*Paper_Space
340
D3
  0
BLOCK_RECORD
  5
3654
330
1
100
AcDbSymbolTableRecord
100
AcDbBlockTableRecord
  2
_Oblique
340
0
102
{BLKREFS
331
57BC
331
57BD
331
57E1
331
57E2
331
57FE
331
57FF
331
5807
331
5808
331
5810
331
5811
331
583B
331
583C
331
5870
331
5871
331
5759
331
575A
331
576B
331
576C
331
5774
331
5775
331
578F
331
5790
331
5798
331
5799
331
57A1
331
57A2
331
57AA
331
57AB
331
57B3
331
57B4
331
5830
331
5831
102
}
  0
BLOCK_RECORD
  5
471F
330
1
100
AcDbSymbolTableRecord
100
AcDbBlockTableRecord
  2
I-BK-Tür_PZ
340
0
310
2800000020000000200000000100080000000000000400000000000000000000000000000000000000000000000080000080000000808000800000008000800080800000C0C0C000C0DCC000F0CAA6000020400000206000002080000020A0000020C0000020E00000400000004020000040400000406000004080000040A0
310
000040C0000040E00000600000006020000060400000606000006080000060A0000060C0000060E00000800000008020000080400000806000008080000080A0000080C0000080E00000A0000000A0200000A0400000A0600000A0800000A0A00000A0C00000A0E00000C0000000C0200000C0400000C0600000C0800000C0
310
A00000C0C00000C0E00000E0000000E0200000E0400000E0600000E0800000E0A00000E0C00000E0E00040000000400020004000400040006000400080004000A0004000C0004000E00040200000402020004020400040206000402080004020A0004020C0004020E000404000004040200040404000404060004040800040
310
40A0004040C0004040E00040600000406020004060400040606000406080004060A0004060C0004060E00040800000408020004080400040806000408080004080A0004080C0004080E00040A0000040A0200040A0400040A0600040A0800040A0A00040A0C00040A0E00040C0000040C0200040C0400040C0600040C08000
310
40C0A00040C0C00040C0E00040E0000040E0200040E0400040E0600040E0800040E0A00040E0C00040E0E00080000000800020008000400080006000800080008000A0008000C0008000E00080200000802020008020400080206000802080008020A0008020C0008020E00080400000804020008040400080406000804080
310
008040A0008040C0008040E00080600000806020008060400080606000806080008060A0008060C0008060E00080800000808020008080400080806000808080008080A0008080C0008080E00080A0000080A0200080A0400080A0600080A0800080A0A00080A0C00080A0E00080C0000080C0200080C0400080C0600080C0
310
800080C0A00080C0C00080C0E00080E0000080E0200080E0400080E0600080E0800080E0A00080E0C00080E0E000C0000000C0002000C0004000C0006000C0008000C000A000C000C000C000E000C0200000C0202000C0204000C0206000C0208000C020A000C020C000C020E000C0400000C0402000C0404000C0406000C0
310
408000C040A000C040C000C040E000C0600000C0602000C0604000C0606000C0608000C060A000C060C000C060E000C0800000C0802000C0804000C0806000C0808000C080A000C080C000C080E000C0A00000C0A02000C0A04000C0A06000C0A08000C0A0A000C0A0C000C0A0E000C0C00000C0C02000C0C04000C0C06000
310
C0C08000C0C0A000F0FBFF00A4A0A000808080000000FF0000FF000000FFFF00FF000000FF00FF00FFFF0000FFFFFF0008080808080808080808080808080808080808080808080808080808080808080808080808080808080808080808080808080808080808080808080808080808080808080808080808080808080808
310
08080808080808080808080808080808080808080808080808080808080808080808080808080808080808080808080808080808080808080808080808080808080808080808080808080808080808080808080808080808080808080808080808080808080808080808080808080808080808080808080808080808080808
310
08080808080808080808080808080808080808080808080808080808080808080808080808080808080808080808080808080808080808080808080808080808080808080808080808080808080808080808080808080808080808080808080808080808080808080808080808080808080808080808080808080808080808
310
08080808080808080808080808080808080808080808080808080808080808080808080808080808080808080808080808080808080808080808080808080808080808080808080808080808080808080808080808080808080808080808080808080808080808080808080808080808080808080808080808080808080808
310
08080808080808080808080808080808080808080808080808080808080808080808080808080808080808080808080808080808080808080808080808080808520000000052080808080808080808080808080808080808080808080808080852000000525208080808080808080808080808080808080808080808080808
310
08520000085252080808080808080808080808080808080808080808080808080852000852520008080808080808080808080808080808080808080808080808080052520852000808080808080808080808080808080808080808080808080808005208085200080808080808080808080808080808080808080808080808
310
08080052080852000808080808080808080808080808080808080808080808080808525208520000080808080808080808080808080808080808080808080808080800520852000008080808080808080808080808080808080808080808080808080052525200000808080808080808080808080808080808080808080808
310
08080800005252000008080808080808080808080808080808080808080808080808080000525200000808080808080808080808080808080808080808080808080808000052085200080808080808080808080808080808080808080808080808080800005200005208080808080808080808080808080808080808080808
310
0808080800000000000008080808080808080808080808080808080808080808080808080808080808080808080808080808080808080808
102
{BLKREFS
331
4763
102
}
1001
ACAD
1000
DesignCenter Data
1002
{
1070
     1
1070
     4
1002
}
  0
BLOCK_RECORD
  5
477F
102
{ACAD_XDICTIONARY
360
47B0
102
}
330
1
100
AcDbSymbolTableRecord
100
AcDbBlockTableRecord
  2
I-BK-Tür_Schwelle_PZ
340
0
310
2800000020000000200000000100080000000000000400000000000000000000000000000000000000000000000080000080000000808000800000008000800080800000C0C0C000C0DCC000F0CAA6000020400000206000002080000020A0000020C0000020E00000400000004020000040400000406000004080000040A0
310
000040C0000040E00000600000006020000060400000606000006080000060A0000060C0000060E00000800000008020000080400000806000008080000080A0000080C0000080E00000A0000000A0200000A0400000A0600000A0800000A0A00000A0C00000A0E00000C0000000C0200000C0400000C0600000C0800000C0
310
A00000C0C00000C0E00000E0000000E0200000E0400000E0600000E0800000E0A00000E0C00000E0E00040000000400020004000400040006000400080004000A0004000C0004000E00040200000402020004020400040206000402080004020A0004020C0004020E000404000004040200040404000404060004040800040
310
40A0004040C0004040E00040600000406020004060400040606000406080004060A0004060C0004060E00040800000408020004080400040806000408080004080A0004080C0004080E00040A0000040A0200040A0400040A0600040A0800040A0A00040A0C00040A0E00040C0000040C0200040C0400040C0600040C08000
310
40C0A00040C0C00040C0E00040E0000040E0200040E0400040E0600040E0800040E0A00040E0C00040E0E00080000000800020008000400080006000800080008000A0008000C0008000E00080200000802020008020400080206000802080008020A0008020C0008020E00080400000804020008040400080406000804080
310
008040A0008040C0008040E00080600000806020008060400080606000806080008060A0008060C0008060E00080800000808020008080400080806000808080008080A0008080C0008080E00080A0000080A0200080A0400080A0600080A0800080A0A00080A0C00080A0E00080C0000080C0200080C0400080C0600080C0
310
800080C0A00080C0C00080C0E00080E0000080E0200080E0400080E0600080E0800080E0A00080E0C00080E0E000C0000000C0002000C0004000C0006000C0008000C000A000C000C000C000E000C0200000C0202000C0204000C0206000C0208000C020A000C020C000C020E000C0400000C0402000C0404000C0406000C0
310
408000C040A000C040C000C040E000C0600000C0602000C0604000C0606000C0608000C060A000C060C000C060E000C0800000C0802000C0804000C0806000C0808000C080A000C080C000C080E000C0A00000C0A02000C0A04000C0A06000C0A08000C0A0A000C0A0C000C0A0E000C0C00000C0C02000C0C04000C0C06000
310
C0C08000C0C0A000F0FBFF00A4A0A000808080000000FF0000FF000000FFFF00FF000000FF00FF00FFFF0000FFFFFF0008080808080808080808080808080808080808080808080808080808080808080808080808080808000000000000000000000000080808080808080808080808080808080808080800000000000000
310
00000000000808080808080808080808080808080808080808000000000000000000000000080808080808080808080808080808080808080800000000000008080000000008080808080808080808080808080808080808080000000808080808000000000808080808080808080808080808080808080808000000080808
310
08000800000008080808080808080808080808080808080808080000000808080008080000000808080808080808080808080808080808080808000000080800080808000000080808080808080808080808080808080808080800000008080008080800000008080808080808080808080808080808080808080000000800
310
08080808000000080808080808080808080808080808080808080800000000080808080000000008080808080808080808080808080808080808080000000808080808000000000808080808080808080808080808080808080808000000080808080800000000080808080808080808080808080808080808080800000008
310
08080808000000000808080808080808080808080808080808080808000000080808080800000000080808080808080808080808080808080808080800000000080808000800000008080808080808080808080808080808080808080000000008080800080000000808080808080808080808080808080808080808000000
310
00080808000800000008080808080808080808080808080808080808080000000008080800080000000808080808080808080808080808080808080808000000000008080008000000080808080808080808080808080808080808080800000008000800080800000008080808080808080808080808080808080808080000
310
00080000000808000000080808080808080808080808080808080808080800000008000800080800000008080808080808080808080808080808080808080000000800080008080000000808080808080808080808080808080808080808000000080008000008000000080808080808080808080808080808080808080800
310
00000800080008000000000808080808080808080808080808080808080808000000080800080808000000080808080808080808080808080808080808080800000000000000000000000008080808080808080808080808080808080808080000000000000000000000000808080808080808080808080808080808080808
310
0000000000000000000000000808080808080808080808080808080808080808080808080808080808080808080808080808080808080808
102
{BLKREFS
331
4797
102
}
1001
AcDbDynamicBlockGUID
1000
{E1D6CC73-5BA7-468F-8C02-6BAC10592558}
1001
AcDbBlockRepETag
1070
     1
1071
       21
1001
ACAD
1000
DesignCenter Data
1002
{
1070
     1
1070
     4
1002
}
  0
BLOCK_RECORD
  5
48DA
330
1
100
AcDbSymbolTableRecord
100
AcDbBlockTableRecord
  2
*D3
340
0
  0
BLOCK_RECORD
  5
4923
330
1
100
AcDbSymbolTableRecord
100
AcDbBlockTableRecord
  2
*D4
340
0
  0
BLOCK_RECORD
  5
495F
330
1
100
AcDbSymbolTableRecord
100
AcDbBlockTableRecord
  2
*D5
340
0
  0
BLOCK_RECORD
  5
4977
330
1
100
AcDbSymbolTableRecord
100
AcDbBlockTableRecord
  2
*D6
340
0
  0
BLOCK_RECORD
  5
498F
330
1
100
AcDbSymbolTableRecord
100
AcDbBlockTableRecord
  2
*D7
340
0
  0
BLOCK_RECORD
  5
4CC8
102
{ACAD_XDICTIONARY
360
5AD3
102
}
330
1
100
AcDbSymbolTableRecord
100
AcDbBlockTableRecord
  2
D-Mitteldichtung
340
0
102
{BLKREFS
331
4CE1
102
}
1001
AcDbDynamicBlockGUID
1000
{18D9CF3A-3E20-4083-BC73-C87B4CDB6F13}
1001
AcDbBlockRepETag
1070
     1
1071
        6
1001
ACAD
1000
DesignCenter Data
1002
{
1070
     1
1070
     4
1002
}
  0
BLOCK_RECORD
  5
4CD1
102
{ACAD_XDICTIONARY
360
5A87
102
}
330
1
100
AcDbSymbolTableRecord
100
AcDbBlockTableRecord
  2
D-Überschlag
340
0
102
{BLKREFS
331
4CE3
102
}
1001
AcDbDynamicBlockGUID
1000
{D0E79E61-5533-4941-9A29-A2D9B1A106DE}
1001
AcDbBlockRepETag
1070
     1
1071
        3
1001
ACAD
1000
DesignCenter Data
1002
{
1070
     1
1070
     4
1002
}
  0
BLOCK_RECORD
  5
5256
330
1
100
AcDbSymbolTableRecord
100
AcDbBlockTableRecord
  2
*D10
340
0
  0
BLOCK_RECORD
  5
5262
330
1
100
AcDbSymbolTableRecord
100
AcDbBlockTableRecord
  2
*D11
340
0
  0
BLOCK_RECORD
  5
526E
330
1
100
AcDbSymbolTableRecord
100
AcDbBlockTableRecord
  2
*D12
340
0
  0
BLOCK_RECORD
  5
527A
330
1
100
AcDbSymbolTableRecord
100
AcDbBlockTableRecord
  2
*D13
340
0
  0
BLOCK_RECORD
  5
5286
330
1
100
AcDbSymbolTableRecord
100
AcDbBlockTableRecord
  2
*D14
340
0
  0
BLOCK_RECORD
  5
5292
330
1
100
AcDbSymbolTableRecord
100
AcDbBlockTableRecord
  2
*D15
340
0
  0
BLOCK_RECORD
  5
529E
330
1
100
AcDbSymbolTableRecord
100
AcDbBlockTableRecord
  2
*D16
340
0
  0
BLOCK_RECORD
  5
5466
330
1
100
AcDbSymbolTableRecord
100
AcDbBlockTableRecord
  2
*D17
340
0
  0
BLOCK_RECORD
  5
57D1
330
1
100
AcDbSymbolTableRecord
100
AcDbBlockTableRecord
  2
*D18
340
0
  0
BLOCK_RECORD
  5
5837
330
1
100
AcDbSymbolTableRecord
100
AcDbBlockTableRecord
  2
*D19
340
0
  0
BLOCK_RECORD
  5
5844
330
1
100
AcDbSymbolTableRecord
100
AcDbBlockTableRecord
  2
*D20
340
0
  0
BLOCK_RECORD
  5
5967
102
{ACAD_XDICTIONARY
360
5968
102
}
330
1
100
AcDbSymbolTableRecord
100
AcDbBlockTableRecord
  2
Glas 46mm un IV
340
0
102
{BLKREFS
331
5A19
102
}
1001
AcDbDynamicBlockGUID
1000
{E34593CC-D6F9-404F-BCFF-6D8B593925E9}
1001
AcDbBlockRepETag
1070
     1
1071
       44
1001
ACAD
1000
DesignCenter Data
1002
{
1070
     1
1070
     4
1002
}
  0
ENDTAB
  0
ENDSEC
  0
SECTION
  2
BLOCKS
  0
BLOCK
  5
20
330
1F
100
AcDbEntity
  8
0
100
AcDbBlockBegin
  2
*Model_Space
 70
     0
 10
0.0
 20
0.0
 30
0.0
  3
*Model_Space
  1

  0
ENDBLK
  5
21
330
1F
100
AcDbEntity
  8
0
100
AcDbBlockEnd
  0
BLOCK
  5
D4
330
D2
100
AcDbEntity
 67
     1
  8
0
100
AcDbBlockBegin
  2
*Paper_Space
 70
     0
 10
0.0
 20
0.0
 30
0.0
  3
*Paper_Space
  1

  0
ENDBLK
  5
D5
330
D2
100
AcDbEntity
 67
     1
  8
0
100
AcDbBlockEnd
  0
BLOCK
  5
3656
330
3654
100
AcDbEntity
  8
0
100
AcDbBlockBegin
  2
_Oblique
 70
     0
 10
0.0
 20
0.0
 30
0.0
  3
_Oblique
  1

  0
LINE
  5
3655
330
3654
100
AcDbEntity
  8
0
  6
ByBlock
 62
     0
370
    -2
100
AcDbLine
 10
-0.5
 20
-0.5
 30
0.0
 11
0.5
 21
0.5
 31
0.0
  0
ENDBLK
  5
3657
330
3654
100
AcDbEntity
  8
0
100
AcDbBlockEnd
  0
BLOCK
  5
4720
330
471F
100
AcDbEntity
  8
0
100
AcDbBlockBegin
  2
I-BK-Tür_PZ
 70
     0
 10
0.0
 20
0.0
 30
0.0
  3
I-BK-Tür_PZ
  1

  0
LWPOLYLINE
  5
4722
330
471F
100
AcDbEntity
  8
0
100
AcDbPolyline
 90
        4
 70
     1
 43
0.0
 10
-20.0
 20
0.0
 10
-4.0
 20
0.0
 10
-4.0
 20
40.0
 10
-20.0
 20
40.0
1001
AcDbBlockRepETag
1070
     1
1071
        0
1005
4722
  0
LWPOLYLINE
  5
4723
330
471F
100
AcDbEntity
  8
0
100
AcDbPolyline
 90
        4
 70
     1
 43
0.0
 10
-19.25999999999999
 20
1.089999999999984
 10
-4.740000000000009
 20
1.089999999999984
 10
-4.740000000000009
 20
39.25999999999999
 10
-19.25999999999999
 20
39.25999999999999
1001
AcDbBlockRepETag
1070
     1
1071
        1
1005
4723
  0
LWPOLYLINE
  5
4724
330
471F
100
AcDbEntity
  8
0
100
AcDbPolyline
 90
        4
 70
     1
 43
0.0
 10
-17.55999999999994
 20
2.789999999999998
 10
-6.439999999999827
 20
2.789999999999998
 10
-6.439999999999827
 20
38.09999999999999
 10
-17.55999999999994
 20
38.09999999999999
1001
AcDbBlockRepETag
1070
     1
1071
        2
1005
4724
  0
LWPOLYLINE
  5
4725
330
471F
100
AcDbEntity
  8
0
100
AcDbPolyline
 90
        4
 70
     1
 43
0.0
 10
-17.15999999999985
 20
3.18999999999999
 10
-6.839999999999918
 20
3.18999999999999
 10
-6.839999999999918
 20
37.7
 10
-17.15999999999985
 20
37.7
1001
AcDbBlockRepETag
1070
     1
1071
        3
1005
4725
  0
LINE
  5
4726
330
471F
100
AcDbEntity
  8
0
100
AcDbLine
 10
-19.25999999999999
 20
1.209999999999987
 30
0.0
 11
-20.0
 21
1.209999999999987
 31
0.0
1001
AcDbBlockRepETag
1070
     1
1071
        4
1005
4726
  0
LINE
  5
4727
330
471F
100
AcDbEntity
  8
0
100
AcDbLine
 10
-4.740000000000009
 20
1.209999999999987
 30
0.0
 11
-4.0
 21
1.209999999999987
 31
0.0
1001
AcDbBlockRepETag
1070
     1
1071
        5
1005
4727
  0
LINE
  5
4728
330
471F
100
AcDbEntity
  8
0
100
AcDbLine
 10
-20.0
 20
39.13999999999998
 30
0.0
 11
-19.25999999999999
 21
39.13999999999998
 31
0.0
1001
AcDbBlockRepETag
1070
     1
1071
        6
1005
4728
  0
LINE
  5
4729
330
471F
100
AcDbEntity
  8
0
100
AcDbLine
 10
-4.740000000000009
 20
39.13999999999998
 30
0.0
 11
-4.0
 21
39.13999999999998
 31
0.0
1001
AcDbBlockRepETag
1070
     1
1071
        7
1005
4729
  0
LINE
  5
472A
330
471F
100
AcDbEntity
  8
0
100
AcDbLine
 10
-17.55999999999994
 20
38.09999999999999
 30
0.0
 11
-17.55999999999994
 21
39.25999999999999
 31
0.0
1001
AcDbBlockRepETag
1070
     1
1071
        8
1005
472A
  0
LINE
  5
472B
330
471F
100
AcDbEntity
  8
0
100
AcDbLine
 10
-17.55999999999994
 20
2.789999999999998
 30
0.0
 11
-17.55999999999994
 21
1.089999999999984
 31
0.0
1001
AcDbBlockRepETag
1070
     1
1071
        9
1005
472B
  0
LINE
  5
472C
330
471F
100
AcDbEntity
  8
0
100
AcDbLine
 10
-6.439999999999827
 20
2.789999999999998
 30
0.0
 11
-6.439999999999827
 21
1.089999999999984
 31
0.0
1001
AcDbBlockRepETag
1070
     1
1071
       10
1005
472C
  0
LINE
  5
472D
330
471F
100
AcDbEntity
  8
0
100
AcDbLine
 10
-6.439999999999827
 20
38.09999999999999
 30
0.0
 11
-6.439999999999827
 21
39.25999999999999
 31
0.0
1001
AcDbBlockRepETag
1070
     1
1071
       11
1005
472D
  0
LINE
  5
472E
330
471F
100
AcDbEntity
  8
0
100
AcDbLine
 10
-6.839999999999918
 20
37.7
 30
0.0
 11
-6.439999999999827
 21
38.09999999999999
 31
0.0
1001
AcDbBlockRepETag
1070
     1
1071
       12
1005
472E
  0
LINE
  5
472F
330
471F
100
AcDbEntity
  8
0
100
AcDbLine
 10
-17.15999999999985
 20
37.7
 30
0.0
 11
-17.55999999999994
 21
38.09999999999999
 31
0.0
1001
AcDbBlockRepETag
1070
     1
1071
       13
1005
472F
  0
LINE
  5
4730
330
471F
100
AcDbEntity
  8
0
100
AcDbLine
 10
-17.55999999999994
 20
2.789999999999998
 30
0.0
 11
-17.15999999999985
 21
3.18999999999999
 31
0.0
1001
AcDbBlockRepETag
1070
     1
1071
       14
1005
4730
  0
LINE
  5
4731
330
471F
100
AcDbEntity
  8
0
100
AcDbLine
 10
-6.439999999999827
 20
2.789999999999998
 30
0.0
 11
-6.839999999999918
 21
3.18999999999999
 31
0.0
1001
AcDbBlockRepETag
1070
     1
1071
       15
1005
4731
  0
LINE
  5
4732
330
471F
100
AcDbEntity
  8
Schraffur
100
AcDbLine
 10
-4.740000000000009
 20
39.25999999999999
 30
0.0
 11
-19.25999999999999
 21
20.17499999999998
 31
0.0
1001
AcDbBlockRepETag
1070
     1
1071
       16
1005
4732
  0
LINE
  5
4733
330
471F
100
AcDbEntity
  8
Schraffur
100
AcDbLine
 10
-19.25999999999999
 20
20.17499999999998
 30
0.0
 11
-4.740000000000009
 21
1.089999999999984
 31
0.0
1001
AcDbBlockRepETag
1070
     1
1071
       17
1005
4733
  0
LINE
  5
4734
330
471F
100
AcDbEntity
  8
Schraffur
100
AcDbLine
 10
-4.740000000000009
 20
1.089999999999984
 30
0.0
 11
-12.0
 21
39.25999999999999
 31
0.0
1001
AcDbBlockRepETag
1070
     1
1071
       18
1005
4734
  0
LINE
  5
4735
330
471F
100
AcDbEntity
  8
Schraffur
100
AcDbLine
 10
-12.0
 20
39.25999999999999
 30
0.0
 11
-19.25999999999999
 21
1.089999999999984
 31
0.0
1001
AcDbBlockRepETag
1070
     1
1071
       19
1005
4735
  0
MTEXT
  5
4736
330
471F
100
AcDbEntity
  8
0
100
AcDbMText
 10
-16.68756210696028
 20
4.949861760079706
 30
0.0
 40
1.5
 41
18.74045823417145
 71
     1
 72
     5
  1
M1:50
  7
RomanS
 73
     1
 44
1.0
1001
AcDbBlockRepETag
1070
     1
1071
       20
1005
4736
1001
ACAD
1000
MTEXTBEGIN
1070
    73
1070
     1
1070
    44
1040
1.0
1070
    74
1070
     0
1000
MTEXTEND
1000
ACAD_MTEXT_DEFINED_HEIGHT_BEGIN
1070
    46
1040
48.0
1000
ACAD_MTEXT_DEFINED_HEIGHT_END
  0
ENDBLK
  5
4721
330
471F
100
AcDbEntity
  8
0
100
AcDbBlockEnd
  0
BLOCK
  5
4780
330
477F
100
AcDbEntity
  8
0
100
AcDbBlockBegin
  2
I-BK-Tür_Schwelle_PZ
 70
     0
 10
0.0
 20
0.0
 30
0.0
  3
I-BK-Tür_Schwelle_PZ
  1

  0
LWPOLYLINE
  5
479B
330
477F
100
AcDbEntity
  8
0
100
AcDbPolyline
 90
        4
 70
     1
 43
0.0
 10
-20.0
 20
0.0
 10
-4.0
 20
0.0
 10
-4.0
 20
40.0
 10
-20.0
 20
40.0
1001
AcDbBlockRepETag
1070
     1
1071
        0
1005
479B
  0
LWPOLYLINE
  5
479C
330
477F
100
AcDbEntity
  8
0
100
AcDbPolyline
 90
        4
 70
     1
 43
0.0
 10
-19.26
 20
0.1399999999999818
 10
-4.74000000000029
 20
0.1399999999999818
 10
-4.74000000000029
 20
39.25999999999998
 10
-19.26
 20
39.25999999999998
1001
AcDbBlockRepETag
1070
     1
1071
        1
1005
479C
  0
LWPOLYLINE
  5
479D
330
477F
100
AcDbEntity
  8
0
100
AcDbPolyline
 90
        4
 70
     1
 43
0.0
 10
-17.56
 20
1.839999999999981
 10
-6.439999999999997
 20
1.839999999999981
 10
-6.439999999999997
 20
38.09999999999997
 10
-17.56
 20
38.09999999999997
1001
AcDbBlockRepETag
1070
     1
1071
        2
1005
479D
  0
LWPOLYLINE
  5
479E
330
477F
100
AcDbEntity
  8
0
100
AcDbPolyline
 90
        4
 70
     1
 43
0.0
 10
-17.16000000000029
 20
2.240000000000017
 10
-6.839999999999997
 20
2.240000000000017
 10
-6.839999999999997
 20
37.69999999999998
 10
-17.16000000000029
 20
37.69999999999998
1001
AcDbBlockRepETag
1070
     1
1071
        3
1005
479E
  0
LINE
  5
479F
330
477F
100
AcDbEntity
  8
0
100
AcDbLine
 10
-19.26
 20
38.44
 30
0.0
 11
-20.0
 21
38.44
 31
0.0
1001
AcDbBlockRepETag
1070
     1
1071
        4
1005
479F
  0
LINE
  5
47A0
330
477F
100
AcDbEntity
  8
0
100
AcDbLine
 10
-4.74000000000029
 20
38.44
 30
0.0
 11
-4.0
 21
38.44
 31
0.0
1001
AcDbBlockRepETag
1070
     1
1071
        5
1005
47A0
  0
LINE
  5
47A1
330
477F
100
AcDbEntity
  8
0
100
AcDbLine
 10
-17.56
 20
38.09999999999997
 30
0.0
 11
-17.56
 21
39.25999999999998
 31
0.0
1001
AcDbBlockRepETag
1070
     1
1071
        6
1005
47A1
  0
LINE
  5
47A2
330
477F
100
AcDbEntity
  8
0
100
AcDbLine
 10
-6.439999999999997
 20
38.09999999999997
 30
0.0
 11
-6.439999999999997
 21
39.25999999999998
 31
0.0
1001
AcDbBlockRepETag
1070
     1
1071
        7
1005
47A2
  0
LINE
  5
47A3
330
477F
100
AcDbEntity
  8
0
100
AcDbLine
 10
-6.839999999999997
 20
37.69999999999998
 30
0.0
 11
-6.439999999999997
 21
38.09999999999997
 31
0.0
1001
AcDbBlockRepETag
1070
     1
1071
        8
1005
47A3
  0
LINE
  5
47A4
330
477F
100
AcDbEntity
  8
0
100
AcDbLine
 10
-17.16000000000029
 20
37.69999999999998
 30
0.0
 11
-17.56
 21
38.09999999999997
 31
0.0
1001
AcDbBlockRepETag
1070
     1
1071
        9
1005
47A4
  0
LINE
  5
47A5
330
477F
100
AcDbEntity
  8
0
100
AcDbLine
 10
-17.16000000000029
 20
2.240000000000017
 30
0.0
 11
-17.56
 21
1.839999999999981
 31
0.0
1001
AcDbBlockRepETag
1070
     1
1071
       10
1005
47A5
  0
LINE
  5
47A6
330
477F
100
AcDbEntity
  8
0
100
AcDbLine
 10
-6.839999999999997
 20
2.240000000000017
 30
0.0
 11
-6.439999999999997
 21
1.839999999999981
 31
0.0
1001
AcDbBlockRepETag
1070
     1
1071
       11
1005
47A6
  0
LINE
  5
47A7
330
477F
100
AcDbEntity
  8
0
100
AcDbLine
 10
-6.439999999999997
 20
1.839999999999981
 30
0.0
 11
-6.439999999999997
 21
0.1399999999999818
 31
0.0
1001
AcDbBlockRepETag
1070
     1
1071
       12
1005
47A7
  0
LINE
  5
47A8
330
477F
100
AcDbEntity
  8
0
100
AcDbLine
 10
-17.56
 20
1.839999999999981
 30
0.0
 11
-17.56
 21
0.1399999999999818
 31
0.0
1001
AcDbBlockRepETag
1070
     1
1071
       13
1005
47A8
  0
LINE
  5
47A9
330
477F
100
AcDbEntity
  8
0
100
AcDbLine
 10
-20.0
 20
0.2400000000000182
 30
0.0
 11
-19.26
 21
0.2400000000000182
 31
0.0
1001
AcDbBlockRepETag
1070
     1
1071
       14
1005
47A9
  0
LINE
  5
47AA
330
477F
100
AcDbEntity
  8
0
100
AcDbLine
 10
-4.74000000000029
 20
0.2400000000000182
 30
0.0
 11
-4.0
 21
0.2400000000000182
 31
0.0
1001
AcDbBlockRepETag
1070
     1
1071
       15
1005
47AA
  0
LINE
  5
47AB
330
477F
100
AcDbEntity
  8
0
100
AcDbLine
 10
-4.74000000000029
 20
0.1399999999999818
 30
0.0
 11
-19.26
 21
19.69999999999998
 31
0.0
1001
AcDbBlockRepETag
1070
     1
1071
       16
1005
47AB
  0
LINE
  5
47AC
330
477F
100
AcDbEntity
  8
0
100
AcDbLine
 10
-19.26
 20
19.69999999999998
 30
0.0
 11
-4.74000000000029
 21
39.25999999999998
 31
0.0
1001
AcDbBlockRepETag
1070
     1
1071
       17
1005
47AC
  0
LINE
  5
47AD
330
477F
100
AcDbEntity
  8
0
100
AcDbLine
 10
-19.26
 20
0.1399999999999818
 30
0.0
 11
-12.0
 21
39.25999999999998
 31
0.0
1001
AcDbBlockRepETag
1070
     1
1071
       18
1005
47AD
  0
LINE
  5
47AE
330
477F
100
AcDbEntity
  8
0
100
AcDbLine
 10
-12.0
 20
39.25999999999998
 30
0.0
 11
-4.74000000000029
 21
0.1399999999999818
 31
0.0
1001
AcDbBlockRepETag
1070
     1
1071
       19
1005
47AE
  0
MTEXT
  5
47AF
330
477F
100
AcDbEntity
  8
0
100
AcDbMText
 10
-16.7252733649296
 20
4.106993437511173
 30
0.0
 40
1.5
 41
18.74045823417145
 71
     1
 72
     5
  1
M1:50
  7
RomanS
 73
     1
 44
1.0
1001
AcDbBlockRepETag
1070
     1
1071
       20
1005
47AF
1001
ACAD
1000
MTEXTBEGIN
1070
    73
1070
     1
1070
    44
1040
1.0
1070
    74
1070
     0
1000
MTEXTEND
  0
ENDBLK
  5
4781
330
477F
100
AcDbEntity
  8
0
100
AcDbBlockEnd
  0
BLOCK
  5
48E4
330
48DA
100
AcDbEntity
  8
0
100
AcDbBlockBegin
  2
*D3
 70
     1
 10
0.0
 20
0.0
 30
0.0
  3
*D3
  1

  0
LINE
  5
57FB
330
48DA
100
AcDbEntity
  8
Bemaßung
 62
     0
370
    -2
100
AcDbLine
 10
196.8464648679485
 20
159.7160656118288
 30
0.0
 11
196.8464648679485
 21
160.3410656118288
 31
0.0
  0
LINE
  5
57FC
330
48DA
100
AcDbEntity
  8
Bemaßung
 62
     0
370
    -2
100
AcDbLine
 10
132.8464648679487
 20
159.7160656118288
 30
0.0
 11
132.8464648679487
 21
160.3410656118288
 31
0.0
  0
LINE
  5
57FD
330
48DA
100
AcDbEntity
  8
Bemaßung
 62
     0
370
    -2
100
AcDbLine
 10
196.8464648679485
 20
159.0910656118288
 30
0.0
 11
132.8464648679487
 21
159.0910656118288
 31
0.0
  0
INSERT
  5
57FE
330
48DA
100
AcDbEntity
  8
Bemaßung
 62
     0
370
    -2
100
AcDbBlockReference
  2
_Oblique
 10
196.8464648679485
 20
159.0910656118288
 30
0.0
 41
2.5
 42
2.5
 43
2.5
  0
INSERT
  5
57FF
330
48DA
100
AcDbEntity
  8
Bemaßung
 62
     0
370
    -2
100
AcDbBlockReference
  2
_Oblique
 10
132.8464648679487
 20
159.0910656118288
 30
0.0
 41
2.5
 42
2.5
 43
2.5
 50
180.0
  0
MTEXT
  5
5800
330
48DA
100
AcDbEntity
  8
Bemaßung
 62
     0
100
AcDbMText
 10
164.8464648679486
 20
160.9660656118288
 30
0.0
 40
2.5
 41
0.0
 71
     5
 72
     1
  1
64
  7
RomanS
 73
     1
 44
1.0
1001
ACAD
1000
MTEXTBEGIN
1070
    73
1070
     1
1070
    44
1040
1.0
1070
    74
1070
     0
1000
MTEXTEND
  0
POINT
  5
5801
330
48DA
100
AcDbEntity
  8
Defpoints
 62
     0
100
AcDbPoint
 10
196.8464648679485
 20
159.0910656118288
 30
0.0
  0
POINT
  5
5802
330
48DA
100
AcDbEntity
  8
Defpoints
 62
     0
100
AcDbPoint
 10
132.8464648679487
 20
159.0910656118288
 30
0.0
  0
POINT
  5
5803
330
48DA
100
AcDbEntity
  8
Defpoints
 62
     0
100
AcDbPoint
 10
132.8464648679487
 20
159.0910656118288
 30
0.0
  0
ENDBLK
  5
48E5
330
48DA
100
AcDbEntity
  8
0
100
AcDbBlockEnd
  0
BLOCK
  5
492D
330
4923
100
AcDbEntity
  8
0
100
AcDbBlockBegin
  2
*D4
 70
     1
 10
0.0
 20
0.0
 30
0.0
  3
*D4
  1

  0
LINE
  5
5756
330
4923
100
AcDbEntity
  8
Bemaßung
 62
     0
370
    -2
100
AcDbLine
 10
97.84646486794828
 20
57.14109523359178
 30
0.0
 11
97.84646486794828
 21
57.76609523359178
 31
0.0
  0
LINE
  5
5757
330
4923
100
AcDbEntity
  8
Bemaßung
 62
     0
370
    -2
100
AcDbLine
 10
91.84646486794877
 20
57.14109523359178
 30
0.0
 11
91.84646486794877
 21
57.76609523359178
 31
0.0
  0
LINE
  5
5758
330
4923
100
AcDbEntity
  8
Bemaßung
 62
     0
370
    -2
100
AcDbLine
 10
97.84646486794828
 20
56.51609523359178
 30
0.0
 11
91.84646486794877
 21
56.51609523359178
 31
0.0
  0
INSERT
  5
5759
330
4923
100
AcDbEntity
  8
Bemaßung
 62
     0
370
    -2
100
AcDbBlockReference
  2
_Oblique
 10
97.84646486794828
 20
56.51609523359178
 30
0.0
 41
2.5
 42
2.5
 43
2.5
  0
INSERT
  5
575A
330
4923
100
AcDbEntity
  8
Bemaßung
 62
     0
370
    -2
100
AcDbBlockReference
  2
_Oblique
 10
91.84646486794877
 20
56.51609523359178
 30
0.0
 41
2.5
 42
2.5
 43
2.5
 50
180.0
  0
MTEXT
  5
575B
330
4923
100
AcDbEntity
  8
Bemaßung
 62
     0
100
AcDbMText
 10
94.84646486794851
 20
58.39109523359178
 30
0.0
 40
2.5
 41
0.0
 71
     5
 72
     1
  1
6
  7
RomanS
 73
     1
 44
1.0
1001
ACAD
1000
MTEXTBEGIN
1070
    73
1070
     1
1070
    44
1040
1.0
1070
    74
1070
     0
1000
MTEXTEND
  0
POINT
  5
575C
330
4923
100
AcDbEntity
  8
Defpoints
 62
     0
100
AcDbPoint
 10
97.84646486794828
 20
56.51609523359178
 30
0.0
  0
POINT
  5
575D
330
4923
100
AcDbEntity
  8
Defpoints
 62
     0
100
AcDbPoint
 10
91.84646486794877
 20
56.51609523359178
 30
0.0
  0
POINT
  5
575E
330
4923
100
AcDbEntity
  8
Defpoints
 62
     0
100
AcDbPoint
 10
91.84646486794877
 20
56.51609523359178
 30
0.0
  0
ENDBLK
  5
492E
330
4923
100
AcDbEntity
  8
0
100
AcDbBlockEnd
  0
BLOCK
  5
4969
330
495F
100
AcDbEntity
  8
0
100
AcDbBlockBegin
  2
*D5
 70
     1
 10
0.0
 20
0.0
 30
0.0
  3
*D5
  1

  0
LINE
  5
582D
330
495F
100
AcDbEntity
  8
Bemaßung
 62
     0
370
    -2
100
AcDbLine
 10
109.8464648679482
 20
90.03128089478416
 30
0.0
 11
109.8464648679482
 21
90.65628089478416
 31
0.0
  0
LINE
  5
582E
330
495F
100
AcDbEntity
  8
Bemaßung
 62
     0
370
    -2
100
AcDbLine
 10
97.84646486794876
 20
90.03128089478416
 30
0.0
 11
97.84646486794876
 21
90.65628089478416
 31
0.0
  0
LINE
  5
582F
330
495F
100
AcDbEntity
  8
Bemaßung
 62
     0
370
    -2
100
AcDbLine
 10
109.8464648679482
 20
89.40628089478416
 30
0.0
 11
97.84646486794876
 21
89.40628089478416
 31
0.0
  0
INSERT
  5
5830
330
495F
100
AcDbEntity
  8
Bemaßung
 62
     0
370
    -2
100
AcDbBlockReference
  2
_Oblique
 10
109.8464648679482
 20
89.40628089478416
 30
0.0
 41
2.5
 42
2.5
 43
2.5
  0
INSERT
  5
5831
330
495F
100
AcDbEntity
  8
Bemaßung
 62
     0
370
    -2
100
AcDbBlockReference
  2
_Oblique
 10
97.84646486794876
 20
89.40628089478416
 30
0.0
 41
2.5
 42
2.5
 43
2.5
 50
180.0
  0
MTEXT
  5
5832
330
495F
100
AcDbEntity
  8
Bemaßung
 62
     0
100
AcDbMText
 10
103.8464648679485
 20
91.28128089478416
 30
0.0
 40
2.5
 41
0.0
 71
     5
 72
     1
  1
12
  7
RomanS
 73
     1
 44
1.0
1001
ACAD
1000
MTEXTBEGIN
1070
    73
1070
     1
1070
    44
1040
1.0
1070
    74
1070
     0
1000
MTEXTEND
  0
POINT
  5
5833
330
495F
100
AcDbEntity
  8
Defpoints
 62
     0
100
AcDbPoint
 10
109.8464648679482
 20
89.40628089478416
 30
0.0
  0
POINT
  5
5834
330
495F
100
AcDbEntity
  8
Defpoints
 62
     0
100
AcDbPoint
 10
97.84646486794876
 20
89.40628089478416
 30
0.0
  0
POINT
  5
5835
330
495F
100
AcDbEntity
  8
Defpoints
 62
     0
100
AcDbPoint
 10
97.84646486794876
 20
89.40628089478416
 30
0.0
  0
ENDBLK
  5
496A
330
495F
100
AcDbEntity
  8
0
100
AcDbBlockEnd
  0
BLOCK
  5
4981
330
4977
100
AcDbEntity
  8
0
100
AcDbBlockBegin
  2
*D6
 70
     1
 10
0.0
 20
0.0
 30
0.0
  3
*D6
  1

  0
LINE
  5
5768
330
4977
100
AcDbEntity
  8
Bemaßung
 62
     0
370
    -2
100
AcDbLine
 10
121.8464648679487
 20
123.1602266381129
 30
0.0
 11
121.8464648679487
 21
123.7852266381129
 31
0.0
  0
LINE
  5
5769
330
4977
100
AcDbEntity
  8
Bemaßung
 62
     0
370
    -2
100
AcDbLine
 10
117.8464648679483
 20
123.1602266381129
 30
0.0
 11
117.8464648679483
 21
123.7852266381129
 31
0.0
  0
LINE
  5
576A
330
4977
100
AcDbEntity
  8
Bemaßung
 62
     0
370
    -2
100
AcDbLine
 10
121.8464648679487
 20
122.5352266381129
 30
0.0
 11
117.8464648679483
 21
122.5352266381129
 31
0.0
  0
INSERT
  5
576B
330
4977
100
AcDbEntity
  8
Bemaßung
 62
     0
370
    -2
100
AcDbBlockReference
  2
_Oblique
 10
121.8464648679487
 20
122.5352266381129
 30
0.0
 41
2.5
 42
2.5
 43
2.5
  0
INSERT
  5
576C
330
4977
100
AcDbEntity
  8
Bemaßung
 62
     0
370
    -2
100
AcDbBlockReference
  2
_Oblique
 10
117.8464648679483
 20
122.5352266381129
 30
0.0
 41
2.5
 42
2.5
 43
2.5
 50
180.0
  0
MTEXT
  5
576D
330
4977
100
AcDbEntity
  8
Bemaßung
 62
     0
100
AcDbMText
 10
119.8464648679485
 20
124.4102266381129
 30
0.0
 40
2.5
 41
0.0
 71
     5
 72
     1
  1
4
  7
RomanS
 73
     1
 44
1.0
1001
ACAD
1000
MTEXTBEGIN
1070
    73
1070
     1
1070
    44
1040
1.0
1070
    74
1070
     0
1000
MTEXTEND
  0
POINT
  5
576E
330
4977
100
AcDbEntity
  8
Defpoints
 62
     0
100
AcDbPoint
 10
121.8464648679487
 20
122.5352266381129
 30
0.0
  0
POINT
  5
576F
330
4977
100
AcDbEntity
  8
Defpoints
 62
     0
100
AcDbPoint
 10
117.8464648679483
 20
122.5352266381129
 30
0.0
  0
POINT
  5
5770
330
4977
100
AcDbEntity
  8
Defpoints
 62
     0
100
AcDbPoint
 10
117.8464648679483
 20
122.5352266381129
 30
0.0
  0
ENDBLK
  5
4982
330
4977
100
AcDbEntity
  8
0
100
AcDbBlockEnd
  0
BLOCK
  5
4999
330
498F
100
AcDbEntity
  8
0
100
AcDbBlockBegin
  2
*D7
 70
     1
 10
0.0
 20
0.0
 30
0.0
  3
*D7
  1

  0
LINE
  5
5771
330
498F
100
AcDbEntity
  8
Bemaßung
 62
     0
370
    -2
100
AcDbLine
 10
91.65153824861461
 20
67.58810803575999
 30
0.0
 11
91.65153824861461
 21
68.21310803575999
 31
0.0
  0
LINE
  5
5772
330
498F
100
AcDbEntity
  8
Bemaßung
 62
     0
370
    -2
100
AcDbLine
 10
54.65153824861408
 20
67.58810803575999
 30
0.0
 11
54.65153824861408
 21
68.21310803575999
 31
0.0
  0
LINE
  5
5773
330
498F
100
AcDbEntity
  8
Bemaßung
 62
     0
370
    -2
100
AcDbLine
 10
91.65153824861461
 20
66.96310803575999
 30
0.0
 11
54.65153824861408
 21
66.96310803575999
 31
0.0
  0
INSERT
  5
5774
330
498F
100
AcDbEntity
  8
Bemaßung
 62
     0
370
    -2
100
AcDbBlockReference
  2
_Oblique
 10
91.65153824861461
 20
66.96310803575999
 30
0.0
 41
2.5
 42
2.5
 43
2.5
  0
INSERT
  5
5775
330
498F
100
AcDbEntity
  8
Bemaßung
 62
     0
370
    -2
100
AcDbBlockReference
  2
_Oblique
 10
54.65153824861408
 20
66.96310803575999
 30
0.0
 41
2.5
 42
2.5
 43
2.5
 50
180.0
  0
MTEXT
  5
5776
330
498F
100
AcDbEntity
  8
Bemaßung
 62
     0
100
AcDbMText
 10
73.15153824861434
 20
68.83810803575999
 30
0.0
 40
2.5
 41
0.0
 71
     5
 72
     1
  1
37
  7
RomanS
 73
     1
 44
1.0
1001
ACAD
1000
MTEXTBEGIN
1070
    73
1070
     1
1070
    44
1040
1.0
1070
    74
1070
     0
1000
MTEXTEND
  0
POINT
  5
5777
330
498F
100
AcDbEntity
  8
Defpoints
 62
     0
100
AcDbPoint
 10
91.65153824861461
 20
66.96310803575999
 30
0.0
  0
POINT
  5
5778
330
498F
100
AcDbEntity
  8
Defpoints
 62
     0
100
AcDbPoint
 10
54.65153824861408
 20
66.96310803575999
 30
0.0
  0
POINT
  5
5779
330
498F
100
AcDbEntity
  8
Defpoints
 62
     0
100
AcDbPoint
 10
54.65153824861408
 20
66.96310803575999
 30
0.0
  0
ENDBLK
  5
499A
330
498F
100
AcDbEntity
  8
0
100
AcDbBlockEnd
  0
BLOCK
  5
4CCB
330
4CC8
100
AcDbEntity
  8
0
100
AcDbBlockBegin
  2
D-Mitteldichtung
 70
     0
 10
0.0
 20
0.0
 30
0.0
  3
D-Mitteldichtung
  1

  0
LWPOLYLINE
  5
5ACD
102
{ACAD_REACTORS
330
5AD0
102
}
330
4CC8
100
AcDbEntity
  8
Dichtungen
100
AcDbPolyline
 90
       31
 70
     0
 43
0.0
 10
-2.199999999999854
 20
-18.20710678118664
 10
-3.846446609406528
 20
-19.85355339059342
 10
-2.199999999999854
 20
-18.20710678118664
 10
-0.5535533905931961
 20
-19.85355339059342
 42
0.6681786379192989
 10
0.3000000000001375
 20
-19.5000000000002
 10
0.3000000000001375
 20
-9.500000000000195
 42
0.2015127546239996
 10
0.000000000000183
 20
-8.785857157145841
 10
0.000000000000183
 20
-2.000000000000198
 42
0.6068148963145977
 10
-1.573576436350814
 20
-1.180847955711186
 10
-4.699999999999862
 20
-3.580055564077468
 10
-4.241138850919055
 20
-4.235377199508633
 10
-1.472072930905178
 20
-2.08639410705254
 42
-0.6068148963145489
 10
-0.9999999999998159
 20
-2.332139720339311
 10
-0.9999999999998159
 20
-3.604729044764866
 10
-3.282702335169731
 20
-8.500000000000085
 10
-6.19999999999986
 20
-8.500000000000197
 10
-6.19999999999986
 20
-8.500000000000197
 42
0.4142135623730951
 10
-5.19999999999986
 20
-9.500000000000195
 10
-3.199999999999861
 20
-9.500000000000195
 10
-3.199999999999861
 20
-11.50000000000008
 10
-4.199999999999858
 20
-11.50000000000008
 42
0.4142135623731117
 10
-4.699999999999862
 20
-12.00000000000008
 10
-4.699999999999862
 20
-14.81801488286712
 42
0.1763269807084733
 10
-4.583022221559343
 20
-15.1394086877103
 10
-3.596074994209216
 20
-16.3156065916057
 42
-0.3152987888789738
 10
-3.546084513876435
 20
-16.88700039644888
 10
-3.899999999999907
 20
-17.5000000000002
 10
-3.899999999999907
 20
-17.40000000000017
 42
0.9999999999999998
 10
-4.699999999999862
 20
-17.40000000000017
 10
-4.699999999999862
 20
-19.5000000000002
 42
0.6681786379192989
 10
-3.846446609406528
 20
-19.85355339059342
1001
AcDbBlockRepETag
1070
     1
1071
        0
1005
5ACD
  0
LWPOLYLINE
  5
5ACE
102
{ACAD_REACTORS
330
5AD0
102
}
330
4CC8
100
AcDbEntity
  8
Dichtungen
100
AcDbPolyline
 90
       11
 70
     1
 43
0.0
 10
-4.299999999999908
 20
-15.01996857795925
 10
-3.559843884025843
 20
-15.90205228825172
 42
-0.3152987888789714
 10
-3.459862923360513
 20
-17.0448398979382
 10
-4.299999999999908
 20
-18.5000000000002
 10
-4.299999999999908
 20
-18.77573593128815
 10
-2.953553390593191
 20
-17.42928932188144
 42
-0.4142135623730922
 10
-2.246446609406529
 20
-17.42928932188144
 10
-1.199999999999771
 20
-18.4757359312882
 10
-1.199999999999771
 20
-14.23137084989864
 10
-3.131370849898253
 20
-12.30000000000015
 10
-4.299999999999908
 20
-12.30000000000015
1001
AcDbBlockRepETag
1070
     1
1071
        1
1005
5ACE
  0
LWPOLYLINE
  5
5ACF
102
{ACAD_REACTORS
330
5AD0
102
}
330
4CC8
100
AcDbEntity
  8
Dichtungen
100
AcDbPolyline
 90
        6
 70
     1
 43
0.0
 10
-0.9999999999998159
 20
-5.497690311286845
 10
-2.399999999999904
 20
-8.499999999999971
 10
-2.399999999999904
 20
-11.50000000000008
 10
-0.7999999999997716
 20
-13.10000000000011
 10
-0.7999999999997716
 20
-10.0000000000002
 10
-0.9999999999998159
 20
-8.865743636076528
1001
AcDbBlockRepETag
1070
     1
1071
        2
1005
5ACF
  0
HATCH
  5
5AD0
330
4CC8
100
AcDbEntity
  8
Schraffur
 62
     6
100
AcDbHatch
 10
0.0
 20
0.0
 30
0.0
210
0.0
220
0.0
230
1.0
  2
ANSI37
 70
     0
 71
     1
 91
        3
 92
        7
 72
     1
 73
     1
 93
       27
 10
-4.699999999999862
 20
-3.580055564077468
 42
0.0
 10
-4.241138850919055
 20
-4.235377199508633
 42
0.0
 10
-1.495342681946056
 20
-2.104453013195251
 42
-0.640927938840332
 10
-0.9999999999998159
 20
-2.332139720339306
 42
0.0
 10
-0.9999999999998159
 20
-3.604729044764866
 42
0.0
 10
-3.282702335169731
 20
-8.500000000000085
 42
0.0
 10
-6.19999999999986
 20
-8.500000000000197
 42
0.414213562373095
 10
-5.19999999999986
 20
-9.500000000000195
 42
0.0
 10
-3.199999999999861
 20
-9.500000000000195
 42
0.0
 10
-3.199999999999861
 20
-11.50000000000008
 42
0.0
 10
-4.199999999999874
 20
-11.50000000000008
 42
0.4142135623730949
 10
-4.699999999999862
 20
-12.00000000000007
 42
0.0
 10
-4.699999999999862
 20
-14.81801488286707
 42
0.1763269807084659
 10
-4.583022221559382
 20
-15.13940868771025
 42
0.0
 10
-3.596074994209189
 20
-16.31560659160573
 42
-0.3152987888789791
 10
-3.54608451387646
 20
-16.88700039644892
 42
0.0
 10
-3.929963996556866
 20
-17.55189916443467
 42
1.216532972353275
 10
-4.699999999999862
 20
-17.40000000000017
 42
0.0
 10
-4.699999999999862
 20
-19.50000000000016
 42
0.6681786379193113
 10
-3.846446609406542
 20
-19.85355339059344
 42
0.0
 10
-2.199999999999852
 20
-18.20710678118664
 42
0.0
 10
-0.5535533905931831
 20
-19.85355339059343
 42
0.6681786379193123
 10
0.3000000000001375
 20
-19.50000000000016
 42
0.0
 10
0.3000000000001375
 20
-9.500000000000095
 42
0.2015127546239739
 10
0.000000000000183
 20
-8.785857157145841
 42
0.0
 10
0.0000000000001825
 20
-2.000000000000171
 42
0.6371011712380449
 10
-1.642854977939623
 20
-1.234012090606072
 42
0.0
 97
        1
330
5ACD
 92
       22
 72
     0
 73
     1
 93
        6
 10
-0.9999999999998159
 20
-5.497690311286845
 10
-0.9999999999998163
 20
-8.865743636076524
 10
-0.7999999999997716
 20
-10.0000000000002
 10
-0.7999999999997716
 20
-13.10000000000011
 10
-2.399999999999904
 20
-11.50000000000008
 10
-2.399999999999904
 20
-8.499999999999971
 97
        1
330
5ACF
 92
       22
 72
     1
 73
     1
 93
       11
 10
-3.131370849898253
 20
-12.30000000000015
 42
0.0
 10
-1.199999999999771
 20
-14.23137084989864
 42
0.0
 10
-1.199999999999771
 20
-18.4757359312882
 42
0.0
 10
-2.246446609406527
 20
-17.42928932188144
 42
0.4142135623730951
 10
-2.953553390593191
 20
-17.42928932188144
 42
0.0
 10
-4.299999999999908
 20
-18.77573593128815
 42
0.0
 10
-4.299999999999908
 20
-18.5000000000002
 42
0.0
 10
-3.459862923360442
 20
-17.04483989793807
 42
0.3152987888789987
 10
-3.559843884025998
 20
-15.90205228825154
 42
0.0
 10
-4.299999999999908
 20
-15.01996857795925
 42
0.0
 10
-4.299999999999908
 20
-12.30000000000015
 42
0.0
 97
        1
330
5ACE
 75
     0
 76
     1
 52
0.0
 41
0.4
 77
     0
 78
     2
 53
45.0
 43
0.0
 44
0.0
 45
-0.8980256121069151
 46
0.8980256121069153
 79
     0
 53
135.0
 43
0.0
 44
0.0
 45
-0.8980256121069153
 46
-0.8980256121069151
 79
     0
 47
0.0569593147751606
 98
        3
 10
-2.80745315721924
 20
-2.411777091431304
 10
-2.80745315721924
 20
-2.411777091431304
 10
-2.80745315721924
 20
-2.411777091431304
1001
ACAD
1010
0.0
1020
0.0
1030
0.0
1001
AcDbBlockRepETag
1070
     1
1071
        4
1005
5AD0
  0
HATCH
  5
5AD1
330
4CC8
100
AcDbEntity
  8
Dichtungen
100
AcDbHatch
 10
0.0
 20
0.0
 30
0.0
210
0.0
220
0.0
230
1.0
  2
SOLID
 70
     1
 71
     1
 91
        1
 92
        1
 93
        1
 72
     2
 10
-0.199999999999882
 20
-19.50000000000016
 40
0.2270269807753889
 50
0.0
 51
360.0
 73
     1
 97
        1
330
5AD2
 75
     0
 76
     1
 98
        1
 10
-1006.175094846241
 20
-441.6450035416293
1001
ACAD
1010
0.0
1020
0.0
1030
0.0
1001
AcDbBlockRepETag
1070
     1
1071
        3
1005
5AD1
  0
CIRCLE
  5
5AD2
102
{ACAD_REACTORS
330
5AD1
102
}
330
4CC8
100
AcDbEntity
  8
Dichtungen
100
AcDbCircle
 10
-0.199999999999882
 20
-19.50000000000016
 30
0.0
 40
0.2270269807753889
1001
AcDbBlockRepETag
1070
     1
1071
        5
1005
5AD2
  0
ENDBLK
  5
4CD0
330
4CC8
100
AcDbEntity
  8
0
100
AcDbBlockEnd
  0
BLOCK
  5
4CD3
330
4CD1
100
AcDbEntity
  8
0
100
AcDbBlockBegin
  2
D-Überschlag
 70
     0
 10
0.0
 20
0.0
 30
0.0
  3
D-Überschlag
  1

  0
LWPOLYLINE
  5
5AA7
330
4CD1
100
AcDbEntity
  8
Dichtungen
100
AcDbPolyline
 90
       20
 70
     1
 43
0.0
 10
-1.100000000000362
 20
2.54142135623783
 10
-1.100000000000362
 20
4.500000000000452
 42
0.4142135623730864
 10
-2.100000000000362
 20
5.500000000000452
 10
-5.24199999999996
 20
5.500000000000452
 10
-5.24199999999996
 20
5.500000000000452
 42
-0.4142135623730951
 10
-4.24199999999996
 20
6.500000000000452
 10
-5.0
 20
12.15358983848682
 10
-5.200000000000271
 20
12.50000000000045
 10
-5.200000000000271
 20
12.40000000000054
 42
-0.9999999999999998
 10
-6.0
 20
12.40000000000054
 10
-6.0
 20
14.50000000000022
 42
-0.6068148963145993
 10
-5.213211781824611
 20
14.90957602214507
 10
-3.0
 20
13.35986844885701
 10
-0.7867882181758433
 20
14.90957602214507
 42
-0.6068148963145922
 10
0.0
 20
14.50000000000022
 10
0.0
 20
2.000000000000448
 42
-0.6681786379192928
 10
-1.707106781186894
 20
1.29289321881401
 10
-3.0
 20
2.585786437627345
 10
-2.434314575050845
 20
3.151471862576725
 10
-1.612132034356363
 20
2.329289321882013
 42
0.6681786379192941
1001
AcDbBlockRepETag
1070
     1
1071
        0
1005
5AA7
  0
LWPOLYLINE
  5
5AA8
330
4CD1
100
AcDbEntity
  8
Dichtungen
100
AcDbPolyline
 90
       10
 70
     1
 43
0.0
 10
-4.467949192431206
 20
12.23205080756929
 10
-5.200000000000271
 20
13.50000000000045
 10
-5.200000000000271
 20
13.92370536190924
 10
-3.286788218175843
 20
12.58406005008373
 42
0.3152987888789827
 10
-2.713211781824607
 20
12.58406005008373
 10
-1.100000000000362
 20
13.71364310044623
 10
-1.100000000000362
 20
7.000000000000452
 42
-0.4142135623730951
 10
-1.60000000000036
 20
6.500000000000452
 10
-3.442000000000231
 20
6.500000000000452
 10
-4.118586108390442
 20
11.23205080756929
 42
0.0557712343996485
1001
AcDbBlockRepETag
1070
     1
1071
        1
1005
5AA8
  0
HATCH
  5
5AA9
330
4CD1
100
AcDbEntity
  8
Dichtungen
100
AcDbHatch
 10
0.0
 20
0.0
 30
0.0
210
0.0
220
0.0
230
1.0
  2
ANSI37
 70
     0
 71
     0
 91
        3
 92
        5
 93
       19
 72
     3
 10
-5.5
 20
14.50000000000045
 11
-0.3535533905932914
 21
-0.3535533905932913
 40
0.9999999999999099
 50
190.0000000000208
 51
314.9999999999999
 73
     1
 72
     1
 10
-6.0
 20
14.50000000000045
 11
-6.0
 21
12.40000000000054
 72
     3
 10
-5.600000000000137
 20
12.40000000000054
 11
-0.2828427124745469
 21
-0.2828427124745469
 40
0.999999999999828
 50
314.9999999999999
 51
494.9999999999997
 73
     1
 72
     1
 10
-5.200000000000271
 20
12.40000000000054
 11
-5.200000000000271
 21
12.50000000000045
 72
     1
 10
-5.200000000000271
 20
12.50000000000045
 11
-5.0
 21
12.15358983848682
 72
     1
 10
-5.0
 20
12.15358983848682
 11
-4.24199999999996
 21
6.500000000000452
 72
     3
 10
-4.24199999999996
 20
5.500000000000452
 11
0.7071067811865534
 21
-0.7071067811865534
 40
0.9999999999999838
 50
135.0
 51
225.0
 73
     1
 72
     1
 10
-5.24199999999996
 20
5.500000000000452
 11
-2.100000000000362
 21
5.500000000000452
 72
     3
 10
-2.100000000000362
 20
4.500000000000452
 11
-0.7071067811865534
 21
-0.7071067811865534
 40
0.9999999999999838
 50
135.0
 51
225.0
 73
     0
 72
     1
 10
-1.100000000000362
 20
4.500000000000452
 11
-1.100000000000362
 21
2.54142135623783
 72
     3
 10
-1.400000000000318
 20
2.541421356237888
 11
-0.2121320343559602
 21
-0.2121320343559602
 40
0.9999999999998323
 50
225.0000000000109
 51
360.000000000023
 73
     0
 72
     1
 10
-1.612132034356363
 20
2.329289321882013
 11
-2.434314575050845
 21
3.151471862576725
 72
     1
 10
-2.434314575050845
 20
3.151471862576725
 11
-3.0
 21
2.585786437627345
 72
     1
 10
-3.0
 20
2.585786437627345
 11
-1.707106781186894
 21
1.29289321881401
 72
     3
 10
-1.000000000000113
 20
2.000000000000563
 11
-0.707106781186667
 21
-0.707106781186667
 40
0.99999999999995
 50
0.0
 51
135.0
 73
     1
 72
     1
 10
0.0
 20
2.000000000000563
 11
0.0
 21
14.50000000000027
 72
     3
 10
-0.5000000000002274
 20
14.50000000000028
 11
0.3535533905934777
 21
-0.3535533905934777
 40
0.9999999999999491
 50
44.99999999999999
 51
169.9999999999893
 73
     1
 72
     1
 10
-0.7867882181758433
 20
14.90957602214507
 11
-3.0
 21
13.35986844885701
 72
     1
 10
-3.0
 20
13.35986844885701
 11
-5.213211781824611
 21
14.90957602214507
 97
        0
 92
       20
 93
       10
 72
     3
 10
-3.000000000000226
 20
12.99363607222835
 11
0.3535533905933945
 21
-0.3535533905933946
 40
0.9999999999999602
 50
-80.00000000000055
 51
-9.999999999985018
 73
     1
 72
     1
 10
-2.713211781824496
 20
12.58406005008379
 11
-1.100000000000362
 21
13.71364310044623
 72
     1
 10
-1.100000000000362
 20
13.71364310044623
 11
-1.100000000000362
 21
7.000000000000452
 72
     3
 10
-1.60000000000036
 20
7.000000000000452
 11
-0.353553390593285
 21
-0.3535533905932851
 40
0.9999999999999358
 50
225.0
 51
315.0
 73
     0
 72
     1
 10
-1.60000000000036
 20
6.500000000000452
 11
-3.442000000000231
 21
6.500000000000452
 72
     1
 10
-3.442000000000231
 20
6.500000000000452
 11
-4.118586108390442
 21
11.23205080756929
 72
     3
 10
-8.761922415472895
 20
10.17086779733375
 11
3.367987636698287
 21
-3.367987636698287
 40
0.9999999999996191
 50
57.87323078304551
 51
70.64182853094493
 73
     1
 72
     1
 10
-4.467949192431206
 20
12.23205080756929
 11
-5.200000000000271
 21
13.50000000000045
 72
     1
 10
-5.200000000000271
 20
13.50000000000045
 11
-5.200000000000271
 21
13.92370536190924
 72
     1
 10
-5.200000000000271
 20
13.92370536190924
 11
-3.286788218175843
 21
12.58406005008373
 97
        0
 92
       20
 93
        2
 72
     3
 10
-0.5779999999999747
 20
14.39100000000047
 11
0.1605323176186189
 21
-0.1605323176186188
 40
0.9999999999993606
 50
135.0
 51
315.0
 73
     0
 72
     3
 10
-0.5779999999999747
 20
14.39100000000047
 11
0.1605323176186244
 21
-0.1605323176186244
 40
0.9999999999995424
 50
314.9999999999999
 51
494.9999999999997
 73
     0
 97
        0
 75
     0
 76
     1
 52
0.0
 41
0.4
 77
     0
 78
     2
 53
45.0
 43
0.0
 44
-0.0000000000000018
 45
-0.8980256121069151
 46
0.898025612106915
 79
     0
 53
135.0
 43
0.0
 44
-0.0000000000000018
 45
-0.898025612106915
 46
-0.8980256121069151
 79
     0
 47
0.0737449119884942
 98
        5
 10
-950.7515759401572
 20
-394.0578210732006
 10
-950.7515759401572
 20
-394.0578210732006
 10
-950.7515759401572
 20
-394.0578210732006
 10
-947.6904334609178
 20
-397.4644045633183
 10
-947.6904334609178
 20
-397.4644045633183
1001
AcDbBlockRepETag
1070
     1
1071
        2
1005
5AA9
1001
ACAD
1010
0.0
1020
0.0
1030
0.0
  0
HATCH
  5
5AAA
330
4CD1
100
AcDbEntity
  8
Dichtungen
100
AcDbHatch
 10
0.0
 20
0.0
 30
0.0
210
0.0
220
0.0
230
1.0
  2
SOLID
 70
     1
 71
     1
 91
        1
 92
        1
 93
        1
 72
     2
 10
-0.5779999999999747
 20
14.39100000000047
 40
0.2270269807753889
 50
0.0
 51
360.0
 73
     1
 97
        1
330
5AAB
 75
     0
 76
     1
 98
        1
 10
-1006.553094846241
 20
-407.7540035416286
1001
ACAD
1010
0.0
1020
0.0
1030
0.0
1001
AcDbBlockRepETag
1070
     1
1071
        3
1005
5AAA
  0
CIRCLE
  5
5AAB
102
{ACAD_REACTORS
330
5AAA
102
}
330
4CD1
100
AcDbEntity
  8
Dichtungen
100
AcDbCircle
 10
-0.5779999999999747
 20
14.39100000000047
 30
0.0
 40
0.2270269807753889
1001
AcDbBlockRepETag
1070
     1
1071
        4
1005
5AAB
  0
ENDBLK
  5
4CD7
330
4CD1
100
AcDbEntity
  8
0
100
AcDbBlockEnd
  0
BLOCK
  5
5260
330
5256
100
AcDbEntity
  8
0
100
AcDbBlockBegin
  2
*D10
 70
     1
 10
0.0
 20
0.0
 30
0.0
  3
*D10
  1

  0
LINE
  5
580D
330
5256
100
AcDbEntity
  8
Bemaßung
 62
     0
370
    -2
100
AcDbLine
 10
139.1996250493962
 20
139.0352266381127
 30
0.0
 11
138.5746250493963
 21
139.0352266381127
 31
0.0
  0
LINE
  5
580E
330
5256
100
AcDbEntity
  8
Bemaßung
 62
     0
370
    -2
100
AcDbLine
 10
139.1996250493962
 20
155.0352266381127
 30
0.0
 11
138.5746250493963
 21
155.0352266381127
 31
0.0
  0
LINE
  5
580F
330
5256
100
AcDbEntity
  8
Bemaßung
 62
     0
370
    -2
100
AcDbLine
 10
139.8246250493962
 20
139.0352266381127
 30
0.0
 11
139.8246250493962
 21
155.0352266381127
 31
0.0
  0
INSERT
  5
5810
330
5256
100
AcDbEntity
  8
Bemaßung
 62
     0
370
    -2
100
AcDbBlockReference
  2
_Oblique
 10
139.8246250493962
 20
139.0352266381127
 30
0.0
 41
2.5
 42
2.5
 43
2.5
 50
270.0
  0
INSERT
  5
5811
330
5256
100
AcDbEntity
  8
Bemaßung
 62
     0
370
    -2
100
AcDbBlockReference
  2
_Oblique
 10
139.8246250493962
 20
155.0352266381127
 30
0.0
 41
2.5
 42
2.5
 43
2.5
 50
90.0
  0
MTEXT
  5
5812
330
5256
100
AcDbEntity
  8
Bemaßung
 62
     0
100
AcDbMText
 10
137.9496250493962
 20
147.0352266381127
 30
0.0
 40
2.5
 41
0.0
 71
     5
 72
     1
  1
16
  7
RomanS
 11
0.0000000000000001
 21
1.0
 31
0.0
 73
     1
 44
1.0
1001
ACAD
1000
MTEXTBEGIN
1070
    73
1070
     1
1070
    44
1040
1.0
1070
    74
1070
     0
1000
MTEXTEND
  0
POINT
  5
5813
330
5256
100
AcDbEntity
  8
Defpoints
 62
     0
100
AcDbPoint
 10
139.8246250493962
 20
139.0352266381127
 30
0.0
  0
POINT
  5
5814
330
5256
100
AcDbEntity
  8
Defpoints
 62
     0
100
AcDbPoint
 10
139.8246250493962
 20
155.0352266381127
 30
0.0
  0
POINT
  5
5815
330
5256
100
AcDbEntity
  8
Defpoints
 62
     0
100
AcDbPoint
 10
139.8246250493962
 20
155.0352266381127
 30
0.0
  0
ENDBLK
  5
5261
330
5256
100
AcDbEntity
  8
0
100
AcDbBlockEnd
  0
BLOCK
  5
526C
330
5262
100
AcDbEntity
  8
0
100
AcDbBlockBegin
  2
*D11
 70
     1
 10
0.0
 20
0.0
 30
0.0
  3
*D11
  1

  0
LINE
  5
5804
330
5262
100
AcDbEntity
  8
Bemaßung
 62
     0
370
    -2
100
AcDbLine
 10
132.8464648679483
 20
159.7160656118288
 30
0.0
 11
132.8464648679483
 21
160.3410656118288
 31
0.0
  0
LINE
  5
5805
330
5262
100
AcDbEntity
  8
Bemaßung
 62
     0
370
    -2
100
AcDbLine
 10
125.7786145185443
 20
159.7160656118288
 30
0.0
 11
125.7786145185443
 21
160.3410656118288
 31
0.0
  0
LINE
  5
5806
330
5262
100
AcDbEntity
  8
Bemaßung
 62
     0
370
    -2
100
AcDbLine
 10
132.8464648679483
 20
159.0910656118288
 30
0.0
 11
125.7786145185443
 21
159.0910656118288
 31
0.0
  0
INSERT
  5
5807
330
5262
100
AcDbEntity
  8
Bemaßung
 62
     0
370
    -2
100
AcDbBlockReference
  2
_Oblique
 10
132.8464648679483
 20
159.0910656118288
 30
0.0
 41
2.5
 42
2.5
 43
2.5
  0
INSERT
  5
5808
330
5262
100
AcDbEntity
  8
Bemaßung
 62
     0
370
    -2
100
AcDbBlockReference
  2
_Oblique
 10
125.7786145185443
 20
159.0910656118288
 30
0.0
 41
2.5
 42
2.5
 43
2.5
 50
180.0
  0
MTEXT
  5
5809
330
5262
100
AcDbEntity
  8
Bemaßung
 62
     0
100
AcDbMText
 10
129.3125396932463
 20
161.204160849924
 30
0.0
 40
2.5
 41
0.0
 71
     5
 72
     1
  1
7,1
  7
RomanS
 73
     1
 44
1.0
1001
ACAD
1000
MTEXTBEGIN
1070
    73
1070
     1
1070
    44
1040
1.0
1070
    74
1070
     0
1000
MTEXTEND
  0
POINT
  5
580A
330
5262
100
AcDbEntity
  8
Defpoints
 62
     0
100
AcDbPoint
 10
132.8464648679483
 20
159.0910656118288
 30
0.0
  0
POINT
  5
580B
330
5262
100
AcDbEntity
  8
Defpoints
 62
     0
100
AcDbPoint
 10
125.7786145185443
 20
159.0910656118288
 30
0.0
  0
POINT
  5
580C
330
5262
100
AcDbEntity
  8
Defpoints
 62
     0
100
AcDbPoint
 10
125.7786145185443
 20
159.0910656118288
 30
0.0
  0
ENDBLK
  5
526D
330
5262
100
AcDbEntity
  8
0
100
AcDbBlockEnd
  0
BLOCK
  5
5278
330
526E
100
AcDbEntity
  8
0
100
AcDbBlockBegin
  2
*D12
 70
     1
 10
0.0
 20
0.0
 30
0.0
  3
*D12
  1

  0
LINE
  5
578C
330
526E
100
AcDbEntity
  8
Bemaßung
 62
     0
370
    -2
100
AcDbLine
 10
61.07146486794885
 20
100.4352266381131
 30
0.0
 11
61.69646486794885
 21
100.4352266381131
 31
0.0
  0
LINE
  5
578D
330
526E
100
AcDbEntity
  8
Bemaßung
 62
     0
370
    -2
100
AcDbLine
 10
60.97146486794827
 20
77.03522663811337
 30
0.0
 11
61.69646486794885
 21
77.03522663811337
 31
0.0
  0
LINE
  5
578E
330
526E
100
AcDbEntity
  8
Bemaßung
 62
     0
370
    -2
100
AcDbLine
 10
60.44646486794885
 20
100.4352266381131
 30
0.0
 11
60.44646486794885
 21
77.03522663811337
 31
0.0
  0
INSERT
  5
578F
330
526E
100
AcDbEntity
  8
Bemaßung
 62
     0
370
    -2
100
AcDbBlockReference
  2
_Oblique
 10
60.44646486794885
 20
100.4352266381131
 30
0.0
 41
2.5
 42
2.5
 43
2.5
 50
90.0
  0
INSERT
  5
5790
330
526E
100
AcDbEntity
  8
Bemaßung
 62
     0
370
    -2
100
AcDbBlockReference
  2
_Oblique
 10
60.44646486794885
 20
77.03522663811337
 30
0.0
 41
2.5
 42
2.5
 43
2.5
 50
270.0
  0
MTEXT
  5
5791
330
526E
100
AcDbEntity
  8
Bemaßung
 62
     0
100
AcDbMText
 10
58.33336962985359
 20
88.73522663811325
 30
0.0
 40
2.5
 41
0.0
 71
     5
 72
     1
  1
23,4
  7
RomanS
 11
0.0000000000000001
 21
1.0
 31
0.0
 73
     1
 44
1.0
1001
ACAD
1000
MTEXTBEGIN
1070
    73
1070
     1
1070
    44
1040
1.0
1070
    74
1070
     0
1000
MTEXTEND
  0
POINT
  5
5792
330
526E
100
AcDbEntity
  8
Defpoints
 62
     0
100
AcDbPoint
 10
60.44646486794885
 20
100.4352266381131
 30
0.0
  0
POINT
  5
5793
330
526E
100
AcDbEntity
  8
Defpoints
 62
     0
100
AcDbPoint
 10
60.34646486794827
 20
77.03522663811337
 30
0.0
  0
POINT
  5
5794
330
526E
100
AcDbEntity
  8
Defpoints
 62
     0
100
AcDbPoint
 10
60.44646486794885
 20
77.03522663811337
 30
0.0
  0
ENDBLK
  5
5279
330
526E
100
AcDbEntity
  8
0
100
AcDbBlockEnd
  0
BLOCK
  5
5284
330
527A
100
AcDbEntity
  8
0
100
AcDbBlockBegin
  2
*D13
 70
     1
 10
0.0
 20
0.0
 30
0.0
  3
*D13
  1

  0
LINE
  5
5795
330
527A
100
AcDbEntity
  8
Bemaßung
 62
     0
370
    -2
100
AcDbLine
 10
61.07146486794864
 20
100.4352266381131
 30
0.0
 11
61.69646486794885
 21
100.4352266381131
 31
0.0
  0
LINE
  5
5796
330
527A
100
AcDbEntity
  8
Bemaßung
 62
     0
370
    -2
100
AcDbLine
 10
61.07146486794864
 20
122.6352266381125
 30
0.0
 11
61.69646486794885
 21
122.6352266381125
 31
0.0
  0
LINE
  5
5797
330
527A
100
AcDbEntity
  8
Bemaßung
 62
     0
370
    -2
100
AcDbLine
 10
60.44646486794885
 20
100.4352266381131
 30
0.0
 11
60.44646486794885
 21
122.6352266381125
 31
0.0
  0
INSERT
  5
5798
330
527A
100
AcDbEntity
  8
Bemaßung
 62
     0
370
    -2
100
AcDbBlockReference
  2
_Oblique
 10
60.44646486794885
 20
100.4352266381131
 30
0.0
 41
2.5
 42
2.5
 43
2.5
 50
270.0
  0
INSERT
  5
5799
330
527A
100
AcDbEntity
  8
Bemaßung
 62
     0
370
    -2
100
AcDbBlockReference
  2
_Oblique
 10
60.44646486794885
 20
122.6352266381125
 30
0.0
 41
2.5
 42
2.5
 43
2.5
 50
90.0
  0
MTEXT
  5
579A
330
527A
100
AcDbEntity
  8
Bemaßung
 62
     0
100
AcDbMText
 10
58.33336962985359
 20
111.5352266381128
 30
0.0
 40
2.5
 41
0.0
 71
     5
 72
     1
  1
22,2
  7
RomanS
 11
0.0000000000000001
 21
1.0
 31
0.0
 73
     1
 44
1.0
1001
ACAD
1000
MTEXTBEGIN
1070
    73
1070
     1
1070
    44
1040
1.0
1070
    74
1070
     0
1000
MTEXTEND
  0
POINT
  5
579B
330
527A
100
AcDbEntity
  8
Defpoints
 62
     0
100
AcDbPoint
 10
60.44646486794864
 20
100.4352266381131
 30
0.0
  0
POINT
  5
579C
330
527A
100
AcDbEntity
  8
Defpoints
 62
     0
100
AcDbPoint
 10
60.44646486794864
 20
122.6352266381125
 30
0.0
  0
POINT
  5
579D
330
527A
100
AcDbEntity
  8
Defpoints
 62
     0
100
AcDbPoint
 10
60.44646486794885
 20
122.6352266381125
 30
0.0
  0
ENDBLK
  5
5285
330
527A
100
AcDbEntity
  8
0
100
AcDbBlockEnd
  0
BLOCK
  5
5290
330
5286
100
AcDbEntity
  8
0
100
AcDbBlockBegin
  2
*D14
 70
     1
 10
0.0
 20
0.0
 30
0.0
  3
*D14
  1

  0
LINE
  5
579E
330
5286
100
AcDbEntity
  8
Bemaßung
 62
     0
370
    -2
100
AcDbLine
 10
59.82146486794864
 20
122.6352266381125
 30
0.0
 11
59.19646486794829
 21
122.6352266381125
 31
0.0
  0
LINE
  5
579F
330
5286
100
AcDbEntity
  8
Bemaßung
 62
     0
370
    -2
100
AcDbLine
 10
59.82146486794829
 20
133.4352266381128
 30
0.0
 11
59.19646486794829
 21
133.4352266381128
 31
0.0
  0
LINE
  5
57A0
330
5286
100
AcDbEntity
  8
Bemaßung
 62
     0
370
    -2
100
AcDbLine
 10
60.44646486794829
 20
122.6352266381125
 30
0.0
 11
60.44646486794829
 21
133.4352266381128
 31
0.0
  0
INSERT
  5
57A1
330
5286
100
AcDbEntity
  8
Bemaßung
 62
     0
370
    -2
100
AcDbBlockReference
  2
_Oblique
 10
60.44646486794829
 20
122.6352266381125
 30
0.0
 41
2.5
 42
2.5
 43
2.5
 50
270.0
  0
INSERT
  5
57A2
330
5286
100
AcDbEntity
  8
Bemaßung
 62
     0
370
    -2
100
AcDbBlockReference
  2
_Oblique
 10
60.44646486794829
 20
133.4352266381128
 30
0.0
 41
2.5
 42
2.5
 43
2.5
 50
90.0
  0
MTEXT
  5
57A3
330
5286
100
AcDbEntity
  8
Bemaßung
 62
     0
100
AcDbMText
 10
58.33336962985303
 20
128.0352266381126
 30
0.0
 40
2.5
 41
0.0
 71
     5
 72
     1
  1
10,8
  7
RomanS
 11
0.0000000000000001
 21
1.0
 31
0.0
 73
     1
 44
1.0
1001
ACAD
1000
MTEXTBEGIN
1070
    73
1070
     1
1070
    44
1040
1.0
1070
    74
1070
     0
1000
MTEXTEND
  0
POINT
  5
57A4
330
5286
100
AcDbEntity
  8
Defpoints
 62
     0
100
AcDbPoint
 10
60.44646486794864
 20
122.6352266381125
 30
0.0
  0
POINT
  5
57A5
330
5286
100
AcDbEntity
  8
Defpoints
 62
     0
100
AcDbPoint
 10
60.44646486794829
 20
133.4352266381128
 30
0.0
  0
POINT
  5
57A6
330
5286
100
AcDbEntity
  8
Defpoints
 62
     0
100
AcDbPoint
 10
60.44646486794829
 20
133.4352266381128
 30
0.0
  0
ENDBLK
  5
5291
330
5286
100
AcDbEntity
  8
0
100
AcDbBlockEnd
  0
BLOCK
  5
529C
330
5292
100
AcDbEntity
  8
0
100
AcDbBlockBegin
  2
*D15
 70
     1
 10
0.0
 20
0.0
 30
0.0
  3
*D15
  1

  0
LINE
  5
57A7
330
5292
100
AcDbEntity
  8
Bemaßung
 62
     0
370
    -2
100
AcDbLine
 10
68.51697059241576
 20
143.1352266381129
 30
0.0
 11
67.89197059241576
 21
143.1352266381129
 31
0.0
  0
LINE
  5
57A8
330
5292
100
AcDbEntity
  8
Bemaßung
 62
     0
370
    -2
100
AcDbLine
 10
68.51697059241576
 20
155.0352266381128
 30
0.0
 11
67.89197059241576
 21
155.0352266381128
 31
0.0
  0
LINE
  5
57A9
330
5292
100
AcDbEntity
  8
Bemaßung
 62
     0
370
    -2
100
AcDbLine
 10
69.14197059241576
 20
143.1352266381129
 30
0.0
 11
69.14197059241576
 21
155.0352266381128
 31
0.0
  0
INSERT
  5
57AA
330
5292
100
AcDbEntity
  8
Bemaßung
 62
     0
370
    -2
100
AcDbBlockReference
  2
_Oblique
 10
69.14197059241576
 20
143.1352266381129
 30
0.0
 41
2.5
 42
2.5
 43
2.5
 50
270.0
  0
INSERT
  5
57AB
330
5292
100
AcDbEntity
  8
Bemaßung
 62
     0
370
    -2
100
AcDbBlockReference
  2
_Oblique
 10
69.14197059241576
 20
155.0352266381128
 30
0.0
 41
2.5
 42
2.5
 43
2.5
 50
90.0
  0
MTEXT
  5
57AC
330
5292
100
AcDbEntity
  8
Bemaßung
 62
     0
100
AcDbMText
 10
67.02887535432051
 20
149.0852266381128
 30
0.0
 40
2.5
 41
0.0
 71
     5
 72
     1
  1
11,9
  7
RomanS
 11
0.0000000000000001
 21
1.0
 31
0.0
 73
     1
 44
1.0
1001
ACAD
1000
MTEXTBEGIN
1070
    73
1070
     1
1070
    44
1040
1.0
1070
    74
1070
     0
1000
MTEXTEND
  0
POINT
  5
57AD
330
5292
100
AcDbEntity
  8
Defpoints
 62
     0
100
AcDbPoint
 10
69.14197059241576
 20
143.1352266381129
 30
0.0
  0
POINT
  5
57AE
330
5292
100
AcDbEntity
  8
Defpoints
 62
     0
100
AcDbPoint
 10
69.14197059241576
 20
155.0352266381128
 30
0.0
  0
POINT
  5
57AF
330
5292
100
AcDbEntity
  8
Defpoints
 62
     0
100
AcDbPoint
 10
69.14197059241576
 20
155.0352266381128
 30
0.0
  0
ENDBLK
  5
529D
330
5292
100
AcDbEntity
  8
0
100
AcDbBlockEnd
  0
BLOCK
  5
52A8
330
529E
100
AcDbEntity
  8
0
100
AcDbBlockBegin
  2
*D16
 70
     1
 10
0.0
 20
0.0
 30
0.0
  3
*D16
  1

  0
LINE
  5
57B0
330
529E
100
AcDbEntity
  8
Bemaßung
 62
     0
370
    -2
100
AcDbLine
 10
54.84646486794826
 20
139.8977266381129
 30
0.0
 11
54.84646486794826
 21
137.0352266381129
 31
0.0
  0
LINE
  5
57B1
330
529E
100
AcDbEntity
  8
Bemaßung
 62
     0
370
    -2
100
AcDbLine
 10
64.84646486794827
 20
138.9102266381129
 30
0.0
 11
64.84646486794827
 21
139.5352266381129
 31
0.0
  0
LINE
  5
57B2
330
529E
100
AcDbEntity
  8
Bemaßung
 62
     0
370
    -2
100
AcDbLine
 10
54.84646486794826
 20
138.2852266381129
 30
0.0
 11
64.84646486794827
 21
138.2852266381129
 31
0.0
  0
INSERT
  5
57B3
330
529E
100
AcDbEntity
  8
Bemaßung
 62
     0
370
    -2
100
AcDbBlockReference
  2
_Oblique
 10
54.84646486794826
 20
138.2852266381129
 30
0.0
 41
2.5
 42
2.5
 43
2.5
 50
180.0
  0
INSERT
  5
57B4
330
529E
100
AcDbEntity
  8
Bemaßung
 62
     0
370
    -2
100
AcDbBlockReference
  2
_Oblique
 10
64.84646486794827
 20
138.2852266381129
 30
0.0
 41
2.5
 42
2.5
 43
2.5
  0
MTEXT
  5
57B5
330
529E
100
AcDbEntity
  8
Bemaßung
 62
     0
100
AcDbMText
 10
59.84646486794826
 20
140.1602266381129
 30
0.0
 40
2.5
 41
0.0
 71
     5
 72
     1
  1
10
  7
RomanS
 73
     1
 44
1.0
1001
ACAD
1000
MTEXTBEGIN
1070
    73
1070
     1
1070
    44
1040
1.0
1070
    74
1070
     0
1000
MTEXTEND
  0
POINT
  5
57B6
330
529E
100
AcDbEntity
  8
Defpoints
 62
     0
100
AcDbPoint
 10
54.84646486794826
 20
140.5227266381129
 30
0.0
  0
POINT
  5
57B7
330
529E
100
AcDbEntity
  8
Defpoints
 62
     0
100
AcDbPoint
 10
64.84646486794827
 20
138.2852266381129
 30
0.0
  0
POINT
  5
57B8
330
529E
100
AcDbEntity
  8
Defpoints
 62
     0
100
AcDbPoint
 10
64.84646486794827
 20
138.2852266381129
 30
0.0
  0
ENDBLK
  5
52A9
330
529E
100
AcDbEntity
  8
0
100
AcDbBlockEnd
  0
BLOCK
  5
5470
330
5466
100
AcDbEntity
  8
0
100
AcDbBlockBegin
  2
*D17
 70
     1
 10
0.0
 20
0.0
 30
0.0
  3
*D17
  1

  0
LINE
  5
57B9
330
5466
100
AcDbEntity
  8
Bemaßung
 62
     0
370
    -2
100
AcDbLine
 10
116.5192256009953
 20
77.03522663811337
 30
0.0
 11
115.8942256009953
 21
77.03522663811337
 31
0.0
  0
LINE
  5
57BA
330
5466
100
AcDbEntity
  8
Bemaßung
 62
     0
370
    -2
100
AcDbLine
 10
116.5192256009953
 20
60.53522663811333
 30
0.0
 11
115.8942256009953
 21
60.53522663811333
 31
0.0
  0
LINE
  5
57BB
330
5466
100
AcDbEntity
  8
Bemaßung
 62
     0
370
    -2
100
AcDbLine
 10
117.1442256009953
 20
77.03522663811337
 30
0.0
 11
117.1442256009953
 21
60.53522663811333
 31
0.0
  0
INSERT
  5
57BC
330
5466
100
AcDbEntity
  8
Bemaßung
 62
     0
370
    -2
100
AcDbBlockReference
  2
_Oblique
 10
117.1442256009953
 20
77.03522663811337
 30
0.0
 41
2.5
 42
2.5
 43
2.5
 50
90.0
  0
INSERT
  5
57BD
330
5466
100
AcDbEntity
  8
Bemaßung
 62
     0
370
    -2
100
AcDbBlockReference
  2
_Oblique
 10
117.1442256009953
 20
60.53522663811333
 30
0.0
 41
2.5
 42
2.5
 43
2.5
 50
270.0
  0
MTEXT
  5
57BE
330
5466
100
AcDbEntity
  8
Bemaßung
 62
     0
100
AcDbMText
 10
115.0311303629
 20
68.78522663811338
 30
0.0
 40
2.5
 41
0.0
 71
     5
 72
     1
  1
16,5
  7
RomanS
 11
0.0000000000000001
 21
1.0
 31
0.0
 73
     1
 44
1.0
1001
ACAD
1000
MTEXTBEGIN
1070
    73
1070
     1
1070
    44
1040
1.0
1070
    74
1070
     0
1000
MTEXTEND
  0
POINT
  5
57BF
330
5466
100
AcDbEntity
  8
Defpoints
 62
     0
100
AcDbPoint
 10
117.1442256009953
 20
77.03522663811337
 30
0.0
  0
POINT
  5
57C0
330
5466
100
AcDbEntity
  8
Defpoints
 62
     0
100
AcDbPoint
 10
117.1442256009953
 20
60.53522663811333
 30
0.0
  0
POINT
  5
57C1
330
5466
100
AcDbEntity
  8
Defpoints
 62
     0
100
AcDbPoint
 10
117.1442256009953
 20
60.53522663811333
 30
0.0
  0
ENDBLK
  5
5471
330
5466
100
AcDbEntity
  8
0
100
AcDbBlockEnd
  0
BLOCK
  5
57DB
330
57D1
100
AcDbEntity
  8
0
100
AcDbBlockBegin
  2
*D18
 70
     1
 10
0.0
 20
0.0
 30
0.0
  3
*D18
  1

  0
LINE
  5
57DE
330
57D1
100
AcDbEntity
  8
Bemaßung
 62
     0
370
    -2
100
AcDbLine
 10
178.2214648679487
 20
118.5352266381129
 30
0.0
 11
177.5964648679487
 21
118.5352266381129
 31
0.0
  0
LINE
  5
57DF
330
57D1
100
AcDbEntity
  8
Bemaßung
 62
     0
370
    -2
100
AcDbLine
 10
178.2214648679487
 20
138.5352266381129
 30
0.0
 11
177.5964648679487
 21
138.5352266381129
 31
0.0
  0
LINE
  5
57E0
330
57D1
100
AcDbEntity
  8
Bemaßung
 62
     0
370
    -2
100
AcDbLine
 10
178.8464648679487
 20
118.5352266381129
 30
0.0
 11
178.8464648679487
 21
138.5352266381129
 31
0.0
  0
INSERT
  5
57E1
330
57D1
100
AcDbEntity
  8
Bemaßung
 62
     0
370
    -2
100
AcDbBlockReference
  2
_Oblique
 10
178.8464648679487
 20
118.5352266381129
 30
0.0
 41
2.5
 42
2.5
 43
2.5
 50
270.0
  0
INSERT
  5
57E2
330
57D1
100
AcDbEntity
  8
Bemaßung
 62
     0
370
    -2
100
AcDbBlockReference
  2
_Oblique
 10
178.8464648679487
 20
138.5352266381129
 30
0.0
 41
2.5
 42
2.5
 43
2.5
 50
90.0
  0
MTEXT
  5
57E3
330
57D1
100
AcDbEntity
  8
Bemaßung
 62
     0
100
AcDbMText
 10
176.9714648679487
 20
128.5352266381129
 30
0.0
 40
2.5
 41
0.0
 71
     5
 72
     1
  1
20
  7
RomanS
 11
0.0000000000000001
 21
1.0
 31
0.0
 73
     1
 44
1.0
1001
ACAD
1000
MTEXTBEGIN
1070
    73
1070
     1
1070
    44
1040
1.0
1070
    74
1070
     0
1000
MTEXTEND
  0
POINT
  5
57E4
330
57D1
100
AcDbEntity
  8
Defpoints
 62
     0
100
AcDbPoint
 10
178.8464648679487
 20
118.5352266381129
 30
0.0
  0
POINT
  5
57E5
330
57D1
100
AcDbEntity
  8
Defpoints
 62
     0
100
AcDbPoint
 10
178.8464648679487
 20
138.5352266381129
 30
0.0
  0
POINT
  5
57E6
330
57D1
100
AcDbEntity
  8
Defpoints
 62
     0
100
AcDbPoint
 10
178.8464648679487
 20
138.5352266381129
 30
0.0
  0
ENDBLK
  5
57DC
330
57D1
100
AcDbEntity
  8
0
100
AcDbBlockEnd
  0
BLOCK
  5
5841
330
5837
100
AcDbEntity
  8
0
100
AcDbBlockBegin
  2
*D19
 70
     1
 10
0.0
 20
0.0
 30
0.0
  3
*D19
  1

  0
LINE
  5
5838
330
5837
100
AcDbEntity
  8
Bemaßung
 62
     0
370
    -2
100
AcDbLine
 10
109.8464648679482
 20
90.03128089478416
 30
0.0
 11
109.8464648679482
 21
90.65628089478416
 31
0.0
  0
LINE
  5
5839
330
5837
100
AcDbEntity
  8
Bemaßung
 62
     0
370
    -2
100
AcDbLine
 10
117.8464648679482
 20
90.03128089478416
 30
0.0
 11
117.8464648679482
 21
90.65628089478416
 31
0.0
  0
LINE
  5
583A
330
5837
100
AcDbEntity
  8
Bemaßung
 62
     0
370
    -2
100
AcDbLine
 10
109.8464648679482
 20
89.40628089478416
 30
0.0
 11
117.8464648679482
 21
89.40628089478416
 31
0.0
  0
INSERT
  5
583B
330
5837
100
AcDbEntity
  8
Bemaßung
 62
     0
370
    -2
100
AcDbBlockReference
  2
_Oblique
 10
109.8464648679482
 20
89.40628089478416
 30
0.0
 41
2.5
 42
2.5
 43
2.5
 50
180.0
  0
INSERT
  5
583C
330
5837
100
AcDbEntity
  8
Bemaßung
 62
     0
370
    -2
100
AcDbBlockReference
  2
_Oblique
 10
117.8464648679482
 20
89.40628089478416
 30
0.0
 41
2.5
 42
2.5
 43
2.5
  0
MTEXT
  5
583D
330
5837
100
AcDbEntity
  8
Bemaßung
 62
     0
100
AcDbMText
 10
113.8464648679482
 20
91.28128089478416
 30
0.0
 40
2.5
 41
0.0
 71
     5
 72
     1
  1
8
  7
RomanS
 73
     1
 44
1.0
1001
ACAD
1000
MTEXTBEGIN
1070
    73
1070
     1
1070
    44
1040
1.0
1070
    74
1070
     0
1000
MTEXTEND
  0
POINT
  5
583E
330
5837
100
AcDbEntity
  8
Defpoints
 62
     0
100
AcDbPoint
 10
109.8464648679482
 20
89.40628089478416
 30
0.0
  0
POINT
  5
583F
330
5837
100
AcDbEntity
  8
Defpoints
 62
     0
100
AcDbPoint
 10
117.8464648679482
 20
89.40628089478416
 30
0.0
  0
POINT
  5
5840
330
5837
100
AcDbEntity
  8
Defpoints
 62
     0
100
AcDbPoint
 10
117.8464648679482
 20
89.40628089478416
 30
0.0
  0
ENDBLK
  5
5842
330
5837
100
AcDbEntity
  8
0
100
AcDbBlockEnd
  0
BLOCK
  5
584E
330
5844
100
AcDbEntity
  8
0
100
AcDbBlockBegin
  2
*D20
 70
     1
 10
0.0
 20
0.0
 30
0.0
  3
*D20
  1

  0
LINE
  5
586D
330
5844
100
AcDbEntity
  8
Bemaßung
 62
     0
370
    -2
100
AcDbLine
 10
196.8464648679485
 20
154.6136802741681
 30
0.0
 11
196.8464648679485
 21
155.238680274168
 31
0.0
  0
LINE
  5
586E
330
5844
100
AcDbEntity
  8
Bemaßung
 62
     0
370
    -2
100
AcDbLine
 10
178.8464648679487
 20
154.6136802741681
 30
0.0
 11
178.8464648679487
 21
155.238680274168
 31
0.0
  0
LINE
  5
586F
330
5844
100
AcDbEntity
  8
Bemaßung
 62
     0
370
    -2
100
AcDbLine
 10
196.8464648679485
 20
153.9886802741681
 30
0.0
 11
178.8464648679487
 21
153.9886802741681
 31
0.0
  0
INSERT
  5
5870
330
5844
100
AcDbEntity
  8
Bemaßung
 62
     0
370
    -2
100
AcDbBlockReference
  2
_Oblique
 10
196.8464648679485
 20
153.9886802741681
 30
0.0
 41
2.5
 42
2.5
 43
2.5
  0
INSERT
  5
5871
330
5844
100
AcDbEntity
  8
Bemaßung
 62
     0
370
    -2
100
AcDbBlockReference
  2
_Oblique
 10
178.8464648679487
 20
153.9886802741681
 30
0.0
 41
2.5
 42
2.5
 43
2.5
 50
180.0
  0
MTEXT
  5
5872
330
5844
100
AcDbEntity
  8
Bemaßung
 62
     0
100
AcDbMText
 10
187.8464648679486
 20
155.8636802741681
 30
0.0
 40
2.5
 41
0.0
 71
     5
 72
     1
  1
18
  7
RomanS
 73
     1
 44
1.0
1001
ACAD
1000
MTEXTBEGIN
1070
    73
1070
     1
1070
    44
1040
1.0
1070
    74
1070
     0
1000
MTEXTEND
  0
POINT
  5
5873
330
5844
100
AcDbEntity
  8
Defpoints
 62
     0
100
AcDbPoint
 10
196.8464648679485
 20
153.9886802741681
 30
0.0
  0
POINT
  5
5874
330
5844
100
AcDbEntity
  8
Defpoints
 62
     0
100
AcDbPoint
 10
178.8464648679487
 20
153.9886802741681
 30
0.0
  0
POINT
  5
5875
330
5844
100
AcDbEntity
  8
Defpoints
 62
     0
100
AcDbPoint
 10
178.8464648679487
 20
153.9886802741681
 30
0.0
  0
ENDBLK
  5
584F
330
5844
100
AcDbEntity
  8
0
100
AcDbBlockEnd
  0
BLOCK
  5
5969
330
5967
100
AcDbEntity
  8
0
100
AcDbBlockBegin
  2
Glas 46mm un IV
 70
     0
 10
0.0
 20
0.0
 30
0.0
  3
Glas 46mm un IV
  1

  0
LINE
  5
596A
330
5967
100
AcDbEntity
  8
Aluhalter
 62
     3
100
AcDbLine
 10
45.99999999999979
 20
-0.0000000000000568
 30
0.0
 11
1.499999999999993
 21
4.999999999999714
 31
0.0
1001
AcDbBlockRepETag
1070
     1
1071
        7
1005
596A
  0
LINE
  5
596B
330
5967
100
AcDbEntity
  8
Aluhalter
 62
     3
100
AcDbLine
 10
1.499999999999993
 20
-0.0000000000000568
 30
0.0
 11
45.99999999999979
 21
4.999999999999943
 31
0.0
1001
AcDbBlockRepETag
1070
     1
1071
        8
1005
596B
  0
LWPOLYLINE
  5
596C
330
5967
100
AcDbEntity
  8
Aluhalter
 62
     3
100
AcDbPolyline
 90
        4
 70
     1
 43
0.0
 10
1.499999999999993
 20
-0.0000000000000568
 10
45.99999999999979
 20
-0.0000000000000568
 10
45.99999999999979
 20
4.999999999999943
 10
1.499999999999993
 20
4.999999999999943
1001
AcDbBlockRepETag
1070
     1
1071
       36
1005
596C
  0
LWPOLYLINE
  5
596D
330
5967
100
AcDbEntity
  8
Glas
 62
   150
100
AcDbPolyline
 90
        6
 70
     0
 43
0.0
 10
22.49999999999976
 20
26.00455082016947
 10
22.49999999999976
 20
5.499999999999971
 10
22.99999999999976
 20
4.999999999999971
 10
25.99999999999931
 20
4.999999999999971
 10
26.49999999999932
 20
5.499999999999971
 10
26.49999999999932
 20
26.00455082016947
1001
AcDbBlockRepETag
1070
     1
1071
       25
1005
596D
  0
LWPOLYLINE
  5
596E
102
{ACAD_REACTORS
330
5972
102
}
330
5967
100
AcDbEntity
  8
Glas
 62
   251
100
AcDbPolyline
 90
        6
 70
     1
 43
0.0
 10
6.499999999999539
 20
17.00000000000005
 10
22.49999999999976
 20
17.00000000000005
 10
22.49999999999976
 20
6.999999999999943
 10
20.49999999999976
 20
4.999999999999943
 10
8.499999999999541
 20
4.999999999999943
 10
6.499999999999539
 20
6.999999999999943
1001
AcDbBlockRepETag
1070
     1
1071
       26
1005
596E
  0
HATCH
  5
596F
330
5967
100
AcDbEntity
  8
Glas
 62
   150
100
AcDbHatch
 10
0.0
 20
0.0
 30
0.0
210
0.0
220
0.0
230
1.0
  2
AR-CONC
 70
     0
 71
     0
 91
        1
 92
        7
 72
     0
 73
     1
 93
        6
 10
26.49999999999932
 20
26.00455082016947
 10
22.49999999999976
 20
26.00455082016947
 10
22.49999999999976
 20
5.499999999999971
 10
22.99999999999976
 20
4.999999999999971
 10
25.99999999999931
 20
4.999999999999971
 10
26.49999999999932
 20
5.499999999999968
 97
        0
 75
     0
 76
     1
 52
0.0
 41
0.02
 77
     0
 78
    13
 53
50.0
 43
44.49999999999972
 44
0.0
 45
3.64369337992008
 46
-0.3187817107780617
 79
     2
 49
0.381
 49
-4.190999999999998
 53
355.0
 43
44.49999999999972
 44
0.0
 45
-0.7048565195133401
 46
3.821132857643598
 79
     2
 49
0.3048
 49
-3.352799999999998
 53
100.451
 43
44.80363999999967
 44
-0.0265650000000051
 45
2.938850033319181
 46
3.502333756405836
 79
     2
 49
0.3237999999999999
 49
-3.561799999999995
 53
46.18419999999999
 43
44.49999999999972
 44
1.01599999999999
 45
5.421580817842596
 46
-0.8408465586545428
 79
     2
 49
0.5714999999999996
 49
-6.286499999999996
 53
96.6356
 43
44.95179799999971
 44
0.9459300000000039
 45
4.748084689324741
 46
4.948511117800983
 79
     2
 49
0.4857000000000001
 49
-5.342699999999998
 53
351.184
 43
44.49999999999972
 44
1.01599999999999
 45
4.748092116278677
 46
4.948502357211953
 79
     2
 49
0.4572
 49
-5.0292
 53
21.0
 43
45.00799999999967
 44
0.7620000000000005
 45
3.032297596707665
 46
-2.045310370335247
 79
     2
 49
0.381
 49
-4.190999999999998
 53
326.0
 43
45.00799999999967
 44
0.7620000000000005
 45
1.236040566952941
 46
3.683759322446384
 79
     2
 49
0.3048
 49
-3.352799999999998
 53
71.45140000000002
 43
45.26068999999973
 44
0.5915579999999922
 45
4.268329815402489
 46
1.638457154321149
 79
     2
 49
0.3237999999999995
 49
-3.561799999999995
 53
37.5
 43
44.49999999999972
 44
0.0
 45
0.0617720650118363
 46
1.691100777463059
 79
     6
 49
0.0
 49
-3.312159999999998
 49
0.0
 49
-3.403599999999998
 49
0.0
 49
-3.365499999999998
 53
7.499999999999999
 43
44.49999999999972
 44
0.0
 45
1.336393250206113
 46
2.00361149636239
 79
     6
 49
0.0
 49
-1.940559999999999
 49
0.0
 49
-3.235959999999998
 49
0.0
 49
-1.282699999999999
 53
327.5
 43
43.36715999999972
 44
0.0
 45
2.711811903337423
 46
-0.1145748798534692
 79
     6
 49
0.0
 49
-1.27
 49
0.0
 49
-3.9624
 49
0.0
 49
-5.257799999999996
 53
317.5
 43
42.85915999999968
 44
0.0
 45
2.962583627720361
 46
0.5085298206666603
 79
     6
 49
0.0
 49
-1.650999999999999
 49
0.0
 49
-2.63144
 49
0.0
 49
-3.7338
 47
0.1050631940408828
 98
        1
 10
25.29914082108939
 20
22.24482153884799
1001
ACAD
1010
0.0
1020
0.0
1030
0.0
1001
AcDbBlockRepETag
1070
     1
1071
       27
1005
596F
  0
HATCH
  5
5970
330
5967
100
AcDbEntity
  8
Glas
 62
   150
100
AcDbHatch
 10
0.0
 20
0.0
 30
0.0
210
0.0
220
0.0
230
1.0
  2
AR-CONC
 70
     0
 71
     0
 91
        2
 92
        7
 72
     0
 73
     1
 93
        5
 10
3.349999999999766
 20
26.00455082016947
 10
0.5
 20
26.00455082016947
 10
0.5
 20
5.499999999999971
 10
0.9999999999999992
 20
4.999999999999971
 10
3.349999999999766
 20
4.999999999999971
 97
        0
 92
        7
 72
     0
 73
     1
 93
        5
 10
6.499999999999543
 20
26.00455082016947
 10
3.649999999999778
 20
26.00455082016947
 10
3.649999999999776
 20
4.999999999999971
 10
5.999999999999543
 20
4.999999999999971
 10
6.499999999999539
 20
5.499999999999971
 97
        0
 75
     0
 76
     1
 52
0.0
 41
0.02
 77
     0
 78
    13
 53
50.0
 43
0.0588179208515097
 44
0.0
 45
3.64369337992008
 46
-0.3187817107780617
 79
     2
 49
0.381
 49
-4.190999999999998
 53
355.0
 43
0.0588179208515097
 44
0.0
 45
-0.7048565195133401
 46
3.821132857643598
 79
     2
 49
0.3048
 49
-3.352799999999998
 53
100.451
 43
0.3624579208515097
 44
-0.026565
 45
2.938850033319181
 46
3.502333756405836
 79
     2
 49
0.3237999999999999
 49
-3.561799999999998
 53
46.18419999999999
 43
0.0588179208515097
 44
1.016
 45
5.421580817842596
 46
-0.8408465586545428
 79
     2
 49
0.5715
 49
-6.2865
 53
96.6356
 43
0.5106159208515098
 44
0.9459299999999998
 45
4.748084689324741
 46
4.948511117800983
 79
     2
 49
0.4857000000000001
 49
-5.342699999999998
 53
351.184
 43
0.0588179208515097
 44
1.016
 45
4.748092116278677
 46
4.948502357211953
 79
     2
 49
0.4572
 49
-5.0292
 53
21.0
 43
0.5668179208515097
 44
0.762
 45
3.032297596707665
 46
-2.045310370335247
 79
     2
 49
0.381
 49
-4.190999999999998
 53
326.0
 43
0.5668179208515097
 44
0.762
 45
1.236040566952941
 46
3.683759322446384
 79
     2
 49
0.3048
 49
-3.352799999999998
 53
71.45140000000002
 43
0.8195079208515098
 44
0.5915580000000002
 45
4.268329815402489
 46
1.638457154321149
 79
     2
 49
0.3237999999999999
 49
-3.561799999999998
 53
37.5
 43
0.0588179208515097
 44
0.0
 45
0.0617720650118363
 46
1.691100777463059
 79
     6
 49
0.0
 49
-3.312159999999998
 49
0.0
 49
-3.403599999999998
 49
0.0
 49
-3.365499999999998
 53
7.499999999999999
 43
0.0588179208515097
 44
0.0
 45
1.336393250206113
 46
2.00361149636239
 79
     6
 49
0.0
 49
-1.940559999999999
 49
0.0
 49
-3.235959999999998
 49
0.0
 49
-1.282699999999999
 53
327.5
 43
-1.07402207914849
 44
0.0
 45
2.711811903337423
 46
-0.1145748798534692
 79
     6
 49
0.0
 49
-1.27
 49
0.0
 49
-3.9624
 49
0.0
 49
-5.257799999999996
 53
317.5
 43
-1.582022079148488
 44
0.0
 45
2.962583627720361
 46
0.5085298206666603
 79
     6
 49
0.0
 49
-1.650999999999999
 49
0.0
 49
-2.63144
 49
0.0
 49
-3.7338
 47
0.092444385211816
 98
        3
 10
1.540023301898002
 20
14.45069002276568
 10
5.055329728785949
 20
13.9884692139226
 10
1.700859178909919
 20
22.24482153884799
1001
AcDbBlockRepETag
1070
     1
1071
       28
1005
5970
1001
ACAD
1010
0.0
1020
0.0
1030
0.0
  0
LWPOLYLINE
  5
5971
330
5967
100
AcDbEntity
  8
Glas
 62
   150
100
AcDbPolyline
 90
        6
 70
     0
 43
0.0
 10
6.499999999999539
 20
26.00455082016947
 10
6.499999999999539
 20
5.499999999999971
 10
5.999999999999543
 20
4.999999999999971
 10
0.9999999999999996
 20
4.999999999999971
 10
0.5
 20
5.499999999999971
 10
0.5
 20
26.00455082016947
1001
AcDbBlockRepETag
1070
     1
1071
       29
1005
5971
  0
HATCH
  5
5972
330
5967
100
AcDbEntity
  8
Glas
 62
   251
100
AcDbHatch
 10
0.0
 20
0.0
 30
0.0
210
0.0
220
0.0
230
1.0
  2
GRAVEL
 70
     0
 71
     1
 91
        1
 92
        1
 93
        6
 72
     1
 10
6.499999999999539
 20
17.00000000000005
 11
22.49999999999976
 21
17.00000000000005
 72
     1
 10
22.49999999999976
 20
17.00000000000005
 11
22.49999999999976
 21
6.999999999999943
 72
     1
 10
22.49999999999976
 20
6.999999999999943
 11
20.49999999999976
 21
4.999999999999943
 72
     1
 10
20.49999999999976
 20
4.999999999999943
 11
8.499999999999541
 21
4.999999999999943
 72
     1
 10
8.499999999999541
 20
4.999999999999943
 11
6.499999999999539
 21
6.999999999999943
 72
     1
 10
6.499999999999539
 20
6.999999999999943
 11
6.499999999999539
 21
17.00000000000005
 97
        1
330
596E
 75
     0
 76
     1
 52
0.0
 41
0.1
 77
     0
 78
    42
 53
228.0128
 43
16.07879999999976
 44
4.540000000000105
 45
-20.32001726589601
 46
-22.86002808951258
 79
     2
 49
0.341721
 49
-33.8305
 53
184.9697
 43
15.85019999999978
 44
4.286000000000115
 45
30.48004930617913
 46
2.539982075387456
 79
     2
 49
0.5864050000000001
 49
-58.05399999999998
 53
132.5104
 43
15.26599999999978
 44
4.235200000000101
 45
25.3999815183317
 46
-27.94002729246042
 79
     2
 49
0.413482
 49
-40.93469999999999
 53
267.2737
 43
14.27539999999976
 44
3.600200000000113
 45
2.539988970828169
 46
50.79998365336643
 79
     2
 49
0.5340050000000001
 49
-52.8664
 53
292.8337
 43
14.24999999999976
 44
3.066800000000113
 45
-12.7000360555019
 46
30.48001733005111
 79
     2
 49
0.5236340000000002
 49
-51.8398
 53
357.2737
 43
14.45319999999975
 44
2.584200000000095
 45
-50.79998365336643
 46
2.539988970828173
 79
     2
 49
0.5340050000000001
 49
-52.8664
 53
37.6942
 43
14.98659999999977
 44
2.558800000000104
 45
-33.02002086123994
 46
-25.39997735698489
 79
     2
 49
0.706194
 49
-69.91310000000002
 53
72.2553
 43
15.5453999999998
 44
2.990600000000113
 45
17.78003556546719
 46
55.88001620603638
 79
     2
 49
0.6667200000000002
 49
-66.0053
 53
121.4296
 43
15.74859999999977
 44
3.625600000000102
 45
-20.32000523526448
 46
33.01996115997269
 79
     2
 49
0.535813
 49
-53.04549999999998
 53
175.2364
 43
15.46919999999976
 44
4.082800000000101
 45
27.93997805305446
 46
-2.539976162721154
 79
     2
 49
0.6117129999999991
 49
-29.97389999999996
 53
222.3974
 43
14.85959999999977
 44
4.133600000000114
 45
-30.48000091723971
 46
-27.93996365063697
 79
     2
 49
0.7910780000000001
 49
-78.3168
 53
138.8141
 43
16.78999999999978
 44
3.574800000000095
 45
-17.77998867422473
 46
15.239976557124
 79
     2
 49
0.270005
 49
-26.7306
 53
171.4692
 43
16.58679999999975
 44
3.752600000000113
 45
33.01994959559142
 46
-5.080012800045698
 79
     2
 49
0.5136819999999993
 49
-50.85459999999994
 53
225.0
 43
16.07879999999976
 44
3.828800000000113
 45
-0.0000000000000005
 46
-2.539998268700193
 79
     2
 49
0.3592090000000001
 49
-3.232889999999998
 53
203.1986
 43
15.90099999999978
 44
4.133600000000114
 45
12.70004282559083
 46
5.080022274306261
 79
     2
 49
0.1934409999999997
 49
-19.15059999999996
 53
291.8014
 43
15.72319999999978
 44
4.057400000000114
 45
-2.540001781894509
 46
7.620004908731861
 79
     2
 49
0.273566
 49
-13.4048
 53
30.9638
 43
15.82479999999975
 44
3.803400000000095
 45
7.619991954808226
 46
5.080003958660552
 79
     2
 49
0.44432
 49
-14.36629999999999
 53
161.5651
 43
16.20579999999977
 44
4.032000000000095
 45
5.080002318180981
 46
-2.539996222465076
 79
     2
 49
0.3212869999999998
 49
-7.710899999999991
 53
16.3895
 43
14.24999999999976
 44
4.057400000000114
 45
25.40001401396935
 46
7.619984149967804
 79
     2
 49
0.4500880000000003
 49
-44.55879999999999
 53
70.3462
 43
14.68179999999977
 44
4.184400000000096
 45
-10.15997168867651
 46
-27.939960488545
 79
     2
 49
0.377599
 49
-37.3822
 53
293.1986
 43
16.20579999999977
 44
4.540000000000105
 45
-5.080022274306261
 46
12.70004282559083
 79
     2
 49
0.38688
 49
-18.9572
 53
343.6105
 43
16.35819999999977
 44
4.184400000000096
 45
-25.40001401396935
 46
7.619984149967812
 79
     2
 49
0.4500879999999999
 49
-44.55879999999996
 53
339.4440000000001
 43
14.24999999999976
 44
2.482600000000104
 45
-12.70001576425591
 46
5.079993836050136
 79
     2
 49
0.4340350000000001
 49
-21.2677
 53
294.7751
 43
14.65639999999978
 44
2.330200000000103
 45
-12.69997040362684
 46
27.93998702615667
 79
     2
 49
0.3636719999999995
 49
-36.00359999999992
 53
66.8014
 43
16.23119999999977
 44
2.000000000000111
 45
5.080022274306266
 46
12.70004282559083
 79
     2
 49
0.38688
 49
-18.9572
 53
17.354
 43
16.38359999999976
 44
2.355600000000094
 45
-33.02000178185996
 46
-10.15998467560563
 79
     2
 49
0.425783
 49
-42.15239999999996
 53
69.444
 43
14.98659999999977
 44
2.000000000000111
 45
-5.079993836050143
 46
-12.70001576425591
 79
     2
 49
0.217018
 49
-21.4848
 53
101.3098999999999
 43
16.07879999999976
 44
2.000000000000111
 45
-2.539987462887348
 46
10.15996746090262
 79
     2
 49
0.129515
 49
-12.822
 53
165.9638
 43
16.05339999999977
 44
2.127000000000093
 45
7.620005354697172
 46
-2.539995604123641
 79
     2
 49
0.5236340000000002
 49
-9.949049999999999
 53
186.009
 43
15.5453999999998
 44
2.254000000000103
 45
25.39996254442795
 46
2.539994068547858
 79
     2
 49
0.485267
 49
-48.0414
 53
303.6901
 43
15.82479999999975
 44
3.574800000000095
 45
-2.540000871307233
 46
5.079995099231839
 79
     2
 49
0.366324
 49
-8.791780000000001
 53
353.1572
 43
16.02799999999978
 44
3.270000000000095
 45
43.18001785664342
 46
-5.08002275165484
 79
     2
 49
0.639557
 49
-63.316
 53
60.94540000000001
 43
16.66299999999977
 44
3.193800000000095
 45
-10.15997636582909
 46
-17.77995761083413
 79
     2
 49
0.261508
 49
-25.8894
 53
90.0
 43
16.78999999999978
 44
3.422400000000095
 45
-2.54
 46
2.54
 79
     2
 49
0.1524
 49
-2.387599999999999
 53
120.2564
 43
15.49459999999976
 44
2.330200000000103
 45
10.15997846683611
 46
-17.77999103247756
 79
     2
 49
0.352867
 49
-34.9339
 53
48.01279999999999
 43
15.31679999999977
 44
2.635000000000104
 45
20.32001726589601
 46
22.86002808951258
 79
     2
 49
0.6834430000000003
 49
-33.48880000000001
 53
0.0
 43
15.77399999999976
 44
3.143000000000113
 45
2.54
 46
2.54
 79
     2
 49
0.6604000000000001
 49
-1.879599999999999
 53
325.3048
 43
16.43439999999976
 44
3.143000000000113
 45
-25.39995599095369
 46
17.78000169048476
 79
     2
 49
0.40161
 49
-39.7593
 53
254.0546
 43
16.7645999999998
 44
2.914400000000113
 45
-2.540006479701474
 46
-10.16002420320363
 79
     2
 49
0.369829
 49
-18.1217
 53
207.6459999999999
 43
16.66299999999977
 44
2.558800000000104
 45
-48.25998304902272
 46
-25.40001597472339
 79
     2
 49
0.6021450000000002
 49
-59.61249999999999
 53
175.4261
 43
16.12959999999976
 44
2.279400000000094
 45
-33.02000760474751
 46
2.539987711219461
 79
     2
 49
0.6370289999999999
 49
-63.06579999999993
 53
175.4261
 43
16.12959999999976
 44
2.279400000000094
 45
-33.02000760474751
 46
2.539987711219461
 79
     2
 49
0.6370289999999999
 49
-63.06579999999993
 98
        1
 10
14.24999999999976
 20
2.000000000000111
1001
ACAD
1010
0.0
1020
0.0
1030
0.0
1001
AcDbBlockRepETag
1070
     1
1071
       30
1005
5972
  0
LWPOLYLINE
  5
5973
330
5967
100
AcDbEntity
  8
Glas
 62
   150
100
AcDbPolyline
 90
        6
 70
     0
 43
0.0
 10
42.50000000000045
 20
26.00455082016947
 10
42.50000000000045
 20
5.499999999999971
 10
43.00000000000046
 20
4.999999999999971
 10
45.99999999999996
 20
4.999999999999971
 10
46.5
 20
5.499999999999971
 10
46.5
 20
26.00455082016947
1001
AcDbBlockRepETag
1070
     1
1071
       37
1005
5973
  0
LWPOLYLINE
  5
5974
102
{ACAD_REACTORS
330
5976
102
}
330
5967
100
AcDbEntity
  8
Glas
 62
   251
100
AcDbPolyline
 90
        6
 70
     1
 43
0.0
 10
26.49999999999932
 20
17.00000000000005
 10
42.50000000000045
 20
17.00000000000005
 10
42.50000000000045
 20
6.999999999999943
 10
40.50000000000046
 20
4.999999999999943
 10
28.49999999999931
 20
4.999999999999943
 10
26.49999999999932
 20
6.999999999999943
1001
AcDbBlockRepETag
1070
     1
1071
       38
1005
5974
  0
HATCH
  5
5975
330
5967
100
AcDbEntity
  8
Glas
 62
   150
100
AcDbHatch
 10
0.0
 20
0.0
 30
0.0
210
0.0
220
0.0
230
1.0
  2
AR-CONC
 70
     0
 71
     0
 91
        1
 92
        7
 72
     0
 73
     1
 93
        6
 10
46.5
 20
26.00455082016947
 10
42.50000000000045
 20
26.00455082016947
 10
42.50000000000045
 20
5.499999999999968
 10
43.00000000000046
 20
4.999999999999971
 10
45.99999999999996
 20
4.999999999999971
 10
46.5
 20
5.499999999999976
 97
        0
 75
     0
 76
     1
 52
0.0
 41
0.02
 77
     0
 78
    13
 53
50.0
 43
48.49999999999972
 44
0.0
 45
3.64369337992008
 46
-0.3187817107780617
 79
     2
 49
0.381
 49
-4.190999999999998
 53
355.0
 43
48.49999999999972
 44
0.0
 45
-0.7048565195133401
 46
3.821132857643598
 79
     2
 49
0.3048
 49
-3.352799999999998
 53
100.451
 43
48.80363999999969
 44
-0.0265650000000051
 45
2.938850033319181
 46
3.502333756405836
 79
     2
 49
0.3237999999999999
 49
-3.561799999999995
 53
46.18419999999999
 43
48.49999999999972
 44
1.01599999999999
 45
5.421580817842596
 46
-0.8408465586545428
 79
     2
 49
0.5714999999999997
 49
-6.286499999999997
 53
96.6356
 43
48.95179799999969
 44
0.9459300000000039
 45
4.748084689324741
 46
4.948511117800983
 79
     2
 49
0.4857000000000001
 49
-5.342699999999998
 53
351.184
 43
48.49999999999972
 44
1.01599999999999
 45
4.748092116278677
 46
4.948502357211953
 79
     2
 49
0.4572
 49
-5.0292
 53
21.0
 43
49.0079999999997
 44
0.7620000000000005
 45
3.032297596707665
 46
-2.045310370335247
 79
     2
 49
0.381
 49
-4.190999999999998
 53
326.0
 43
49.0079999999997
 44
0.7620000000000005
 45
1.236040566952941
 46
3.683759322446384
 79
     2
 49
0.3048
 49
-3.352799999999998
 53
71.45140000000002
 43
49.26068999999973
 44
0.5915579999999922
 45
4.268329815402489
 46
1.638457154321149
 79
     2
 49
0.3237999999999994
 49
-3.561799999999993
 53
37.5
 43
48.49999999999972
 44
0.0
 45
0.0617720650118363
 46
1.691100777463059
 79
     6
 49
0.0
 49
-3.312159999999998
 49
0.0
 49
-3.403599999999998
 49
0.0
 49
-3.365499999999998
 53
7.499999999999999
 43
48.49999999999972
 44
0.0
 45
1.336393250206113
 46
2.00361149636239
 79
     6
 49
0.0
 49
-1.940559999999999
 49
0.0
 49
-3.235959999999998
 49
0.0
 49
-1.282699999999999
 53
327.5
 43
47.36715999999971
 44
0.0
 45
2.711811903337423
 46
-0.1145748798534692
 79
     6
 49
0.0
 49
-1.27
 49
0.0
 49
-3.9624
 49
0.0
 49
-5.257799999999996
 53
317.5
 43
46.85915999999967
 44
0.0
 45
2.962583627720361
 46
0.5085298206666603
 79
     6
 49
0.0
 49
-1.650999999999999
 49
0.0
 49
-2.63144
 49
0.0
 49
-3.7338
 47
0.1050631940408828
 98
        1
 10
45.29914082109007
 20
22.24482153884799
1001
ACAD
1010
0.0
1020
0.0
1030
0.0
1001
AcDbBlockRepETag
1070
     1
1071
       39
1005
5975
  0
HATCH
  5
5976
330
5967
100
AcDbEntity
  8
Glas
 62
   251
100
AcDbHatch
 10
0.0
 20
0.0
 30
0.0
210
0.0
220
0.0
230
1.0
  2
GRAVEL
 70
     0
 71
     1
 91
        1
 92
        1
 93
        6
 72
     1
 10
26.49999999999932
 20
17.00000000000005
 11
42.50000000000045
 21
17.00000000000005
 72
     1
 10
42.50000000000045
 20
17.00000000000005
 11
42.50000000000045
 21
6.999999999999943
 72
     1
 10
42.50000000000045
 20
6.999999999999943
 11
40.50000000000046
 21
4.999999999999943
 72
     1
 10
40.50000000000046
 20
4.999999999999943
 11
28.49999999999931
 21
4.999999999999943
 72
     1
 10
28.49999999999931
 20
4.999999999999943
 11
26.49999999999932
 21
6.999999999999943
 72
     1
 10
26.49999999999932
 20
6.999999999999943
 11
26.49999999999932
 21
17.00000000000005
 97
        1
330
5974
 75
     0
 76
     1
 52
0.0
 41
0.1
 77
     0
 78
    42
 53
228.0128
 43
40.07880000000046
 44
4.540000000000105
 45
-20.32001726589601
 46
-22.86002808951258
 79
     2
 49
0.341721
 49
-33.8305
 53
184.9697
 43
39.85020000000049
 44
4.286000000000115
 45
30.48004930617913
 46
2.539982075387456
 79
     2
 49
0.5864050000000001
 49
-58.05399999999998
 53
132.5104
 43
39.26600000000048
 44
4.235200000000101
 45
25.3999815183317
 46
-27.94002729246042
 79
     2
 49
0.413482
 49
-40.93469999999999
 53
267.2737
 43
38.27540000000045
 44
3.600200000000113
 45
2.539988970828169
 46
50.79998365336643
 79
     2
 49
0.5340050000000001
 49
-52.8664
 53
292.8337
 43
38.25000000000046
 44
3.066800000000113
 45
-12.7000360555019
 46
30.48001733005111
 79
     2
 49
0.5236340000000002
 49
-51.8398
 53
357.2737
 43
38.45320000000049
 44
2.584200000000095
 45
-50.79998365336643
 46
2.539988970828173
 79
     2
 49
0.5340050000000001
 49
-52.8664
 53
37.6942
 43
38.98660000000047
 44
2.558800000000104
 45
-33.02002086123994
 46
-25.39997735698489
 79
     2
 49
0.706194
 49
-69.91310000000002
 53
72.2553
 43
39.54540000000049
 44
2.990600000000113
 45
17.78003556546719
 46
55.88001620603638
 79
     2
 49
0.6667200000000002
 49
-66.0053
 53
121.4296
 43
39.74860000000047
 44
3.625600000000102
 45
-20.32000523526448
 46
33.01996115997269
 79
     2
 49
0.535813
 49
-53.04549999999998
 53
175.2364
 43
39.46920000000046
 44
4.082800000000101
 45
27.93997805305446
 46
-2.539976162721154
 79
     2
 49
0.6117129999999987
 49
-29.97389999999996
 53
222.3974
 43
38.85960000000047
 44
4.133600000000114
 45
-30.48000091723971
 46
-27.93996365063697
 79
     2
 49
0.7910780000000001
 49
-78.3168
 53
138.8141
 43
40.79000000000045
 44
3.574800000000095
 45
-17.77998867422473
 46
15.239976557124
 79
     2
 49
0.270005
 49
-26.7306
 53
171.4692
 43
40.58680000000045
 44
3.752600000000113
 45
33.01994959559142
 46
-5.080012800045698
 79
     2
 49
0.513681999999999
 49
-50.8545999999999
 53
225.0
 43
40.07880000000046
 44
3.828800000000113
 45
-0.0000000000000005
 46
-2.539998268700193
 79
     2
 49
0.3592090000000001
 49
-3.232889999999998
 53
203.1986
 43
39.90100000000048
 44
4.133600000000114
 45
12.70004282559083
 46
5.080022274306261
 79
     2
 49
0.1934409999999997
 49
-19.15059999999996
 53
291.8014
 43
39.72320000000047
 44
4.057400000000114
 45
-2.540001781894509
 46
7.620004908731861
 79
     2
 49
0.273566
 49
-13.4048
 53
30.9638
 43
39.8248000000005
 44
3.803400000000095
 45
7.619991954808226
 46
5.080003958660552
 79
     2
 49
0.44432
 49
-14.36629999999997
 53
161.5651
 43
40.20580000000046
 44
4.032000000000095
 45
5.080002318180981
 46
-2.539996222465076
 79
     2
 49
0.3212869999999997
 49
-7.710899999999991
 53
16.3895
 43
38.25000000000046
 44
4.057400000000114
 45
25.40001401396935
 46
7.619984149967804
 79
     2
 49
0.4500880000000003
 49
-44.55879999999999
 53
70.3462
 43
38.68180000000047
 44
4.184400000000096
 45
-10.15997168867651
 46
-27.939960488545
 79
     2
 49
0.377599
 49
-37.3822
 53
293.1986
 43
40.20580000000046
 44
4.540000000000105
 45
-5.080022274306261
 46
12.70004282559083
 79
     2
 49
0.38688
 49
-18.9572
 53
343.6105
 43
40.35820000000046
 44
4.184400000000096
 45
-25.40001401396935
 46
7.619984149967812
 79
     2
 49
0.4500879999999995
 49
-44.55879999999989
 53
339.4440000000001
 43
38.25000000000046
 44
2.482600000000104
 45
-12.70001576425591
 46
5.079993836050136
 79
     2
 49
0.4340350000000001
 49
-21.2677
 53
294.7751
 43
38.65640000000047
 44
2.330200000000103
 45
-12.69997040362684
 46
27.93998702615667
 79
     2
 49
0.3636719999999992
 49
-36.0035999999999
 53
66.8014
 43
40.23120000000046
 44
2.000000000000111
 45
5.080022274306266
 46
12.70004282559083
 79
     2
 49
0.38688
 49
-18.9572
 53
17.354
 43
40.38360000000047
 44
2.355600000000094
 45
-33.02000178185996
 46
-10.15998467560563
 79
     2
 49
0.425783
 49
-42.15239999999996
 53
69.444
 43
38.98660000000047
 44
2.000000000000111
 45
-5.079993836050143
 46
-12.70001576425591
 79
     2
 49
0.217018
 49
-21.4848
 53
101.3098999999998
 43
40.07880000000046
 44
2.000000000000111
 45
-2.539987462887348
 46
10.15996746090262
 79
     2
 49
0.129515
 49
-12.822
 53
165.9638
 43
40.05340000000046
 44
2.127000000000093
 45
7.620005354697172
 46
-2.539995604123641
 79
     2
 49
0.5236340000000002
 49
-9.949049999999999
 53
186.009
 43
39.54540000000049
 44
2.254000000000103
 45
25.39996254442795
 46
2.539994068547858
 79
     2
 49
0.485267
 49
-48.0414
 53
303.6901
 43
39.8248000000005
 44
3.574800000000095
 45
-2.540000871307233
 46
5.079995099231839
 79
     2
 49
0.366324
 49
-8.791780000000001
 53
353.1572
 43
40.02800000000045
 44
3.270000000000095
 45
43.18001785664342
 46
-5.08002275165484
 79
     2
 49
0.639557
 49
-63.316
 53
60.94540000000001
 43
40.66300000000047
 44
3.193800000000095
 45
-10.15997636582909
 46
-17.77995761083413
 79
     2
 49
0.261508
 49
-25.8894
 53
90.0
 43
40.79000000000045
 44
3.422400000000095
 45
-2.54
 46
2.54
 79
     2
 49
0.1524
 49
-2.387599999999999
 53
120.2564
 43
39.49460000000046
 44
2.330200000000103
 45
10.15997846683611
 46
-17.77999103247756
 79
     2
 49
0.352867
 49
-34.9339
 53
48.01279999999999
 43
39.31680000000046
 44
2.635000000000104
 45
20.32001726589601
 46
22.86002808951258
 79
     2
 49
0.6834430000000003
 49
-33.48880000000001
 53
0.0
 43
39.77400000000046
 44
3.143000000000113
 45
2.54
 46
2.54
 79
     2
 49
0.6604000000000001
 49
-1.879599999999999
 53
325.3048
 43
40.4344000000005
 44
3.143000000000113
 45
-25.39995599095369
 46
17.78000169048476
 79
     2
 49
0.40161
 49
-39.7593
 53
254.0546
 43
40.76460000000049
 44
2.914400000000113
 45
-2.540006479701474
 46
-10.16002420320363
 79
     2
 49
0.369829
 49
-18.1217
 53
207.6459999999999
 43
40.66300000000047
 44
2.558800000000104
 45
-48.25998304902272
 46
-25.40001597472339
 79
     2
 49
0.6021450000000002
 49
-59.61249999999999
 53
175.4261
 43
40.12960000000048
 44
2.279400000000094
 45
-33.02000760474751
 46
2.539987711219461
 79
     2
 49
0.6370289999999989
 49
-63.06579999999989
 53
175.4261
 43
40.12960000000048
 44
2.279400000000094
 45
-33.02000760474751
 46
2.539987711219461
 79
     2
 49
0.6370289999999989
 49
-63.06579999999989
 98
        1
 10
38.25000000000046
 20
2.000000000000111
1001
ACAD
1010
0.0
1020
0.0
1030
0.0
1001
AcDbBlockRepETag
1070
     1
1071
       40
1005
5976
  0
TEXT
  5
5977
330
5967
100
AcDbEntity
  8
Glas
 62
   150
100
AcDbText
 10
29.20676023104563
 20
21.1330179451947
 30
0.0
 40
2.5
  1
Glas 46
 41
0.7
  7
RomanS
100
AcDbText
1001
AcDbBlockRepETag
1070
     1
1071
       31
1005
5977
  0
LINE
  5
5978
330
5967
100
AcDbEntity
  8
Glas
 62
   150
100
AcDbLine
 10
29.09340335333383
 20
20.59884778833504
 30
0.0
 11
39.91796105334886
 21
20.59884778833504
 31
0.0
1001
AcDbBlockRepETag
1070
     1
1071
       32
1005
5978
  0
HATCH
  5
5979
330
5967
100
AcDbEntity
  8
Glas
100
AcDbHatch
 10
0.0
 20
0.0
 30
0.0
210
0.0
220
0.0
230
1.0
  2
SOLID
 70
     1
 71
     0
 91
        1
 92
        7
 72
     0
 73
     1
 93
        4
 10
3.649999999999776
 20
26.00455082016945
 10
3.349999999999766
 20
26.00455082016945
 10
3.349999999999766
 20
4.999999999999971
 10
3.649999999999776
 20
4.999999999999971
 97
        0
 75
     0
 76
     1
 47
0.0394826407993075
 98
        1
 10
3.457066604621843
 20
18.48366451971284
1001
ACAD
1010
0.0
1020
0.0
1030
0.0
1001
AcDbBlockRepETag
1070
     1
1071
       43
1005
5979
  0
LINE
  5
597A
330
5967
100
AcDbEntity
  8
Glas
100
AcDbLine
 10
3.349999999999766
 20
4.999999999999971
 30
0.0
 11
3.349999999999766
 21
26.00455082016945
 31
0.0
1001
AcDbBlockRepETag
1070
     1
1071
       41
1005
597A
  0
LINE
  5
597B
330
5967
100
AcDbEntity
  8
Glas
100
AcDbLine
 10
3.649999999999776
 20
4.999999999999971
 30
0.0
 11
3.649999999999776
 21
26.00455082016945
 31
0.0
1001
AcDbBlockRepETag
1070
     1
1071
       42
1005
597B
  0
ENDBLK
  5
597C
330
5967
100
AcDbEntity
  8
0
100
AcDbBlockEnd
  0
ENDSEC
  0
SECTION
  2
ENTITIES
  0
LWPOLYLINE
  5
3EB0
330
1F
100
AcDbEntity
  8
0
100
AcDbPolyline
 90
        4
 70
     1
 43
0.0
 10
0.0
 20
210.0
 10
0.0
 20
0.0
 10
296.9999999999999
 20
-0.0000000000002274
 10
297.0000000000001
 20
210.0
  0
MTEXT
  5
3EB3
102
{ACAD_XDICTIONARY
360
5C53
102
}
330
1F
100
AcDbEntity
  8
0
100
AcDbMText
 10
8.989289813916229
 20
201.6378241102484
 30
0.0
 40
5.0
 41
152.2982010280057
 71
     1
 72
     5
  3
{\fArial|b1|i0|c0|p34;Holzfenster IDEAL IV78xxxx - ClassicLine\PBalkont\U+00FCr mit PZ\P\fArial|b0|i0|c0|p34;\H0.8x;Ausf\U+00FChrung mit Schwelle oder Sohlbank\fArial|b1|i0|c0|p34;\H0.75x;\P\fArial|b0|i0|c0|p34;Getriebenutmitte 13.15mm\PGlasst\U+00E4
  1
rken 28mm bis 46mm\PDornma\U+00DF 45mm\P\PHorizontalschnitt B-B}
 73
     1
 44
1.0
1001
ACAD
1000
MTEXTBEGIN
1070
    73
1070
     1
1070
    44
1040
1.0
1070
    74
1070
     0
1000
MTEXTEND
1000
ACAD_MTEXT_DEFINED_HEIGHT_BEGIN
1070
    46
1040
11.02238646360934
1000
ACAD_MTEXT_DEFINED_HEIGHT_END
  0
MTEXT
  5
3EB4
102
{ACAD_XDICTIONARY
360
5C55
102
}
330
1F
100
AcDbEntity
  8
0
100
AcDbMText
 10
6.903493688490241
 20
10.76514264524064
 30
0.0
 40
3.0
 41
98.32817594333187
 71
     1
 72
     5
  1
{\fArial|b0|i0|c0|p34;Zeichnung ohne Gew\U+00E4hr; \U+00C4nderungen vorbehalten}
 73
     1
 44
1.0
1001
ACAD
1000
MTEXTBEGIN
1070
    73
1070
     1
1070
    44
1040
1.0
1070
    74
1070
     0
1000
MTEXTEND
1000
ACAD_MTEXT_DEFINED_HEIGHT_BEGIN
1070
    46
1040
3.967088642823908
1000
ACAD_MTEXT_DEFINED_HEIGHT_END
  0
MTEXT
  5
3EBB
330
1F
100
AcDbEntity
  8
0
100
AcDbMText
 10
236.2020773373826
 20
16.17320763113901
 30
0.0
 40
5.0
 41
44.56825787201046
 71
     1
 72
     5
  1
{\fArial|b0|i0|c0|p34;01-IV78-xC/09B}
 73
     1
 44
1.0
1001
ACAD
1000
MTEXTBEGIN
1070
    73
1070
     1
1070
    44
1040
1.0
1070
    74
1070
     0
1000
MTEXTEND
1000
ACAD_MTEXT_DEFINED_HEIGHT_BEGIN
1070
    46
1040
9.819575724238347
1000
ACAD_MTEXT_DEFINED_HEIGHT_END
  0
LWPOLYLINE
  5
3EBC
330
1F
100
AcDbEntity
  8
0
100
AcDbPolyline
 90
        4
 70
     1
 43
0.0
 10
5.999999999999886
 20
6.0
 10
291.0000000000001
 20
6.0
 10
291.0000000000001
 20
204.0
 10
5.999999999999886
 20
204.0
  0
LWPOLYLINE
  5
403F
102
{ACAD_REACTORS
330
547C
330
55A5
330
57E7
102
}
330
1F
100
AcDbEntity
  8
Flügelrahmen
100
AcDbPolyline
 90
       55
 70
     1
 43
0.0
 10
91.84646486794877
 20
69.03522663811348
 42
-0.4142135623730951
 10
93.8464648679483
 20
71.0352266381136
 10
107.3464648679483
 20
71.0352266381136
 10
107.3464648679483
 20
74.03522663811348
 10
101.8464648679479
 20
74.03522663811348
 10
101.8464648679484
 20
76.0352266381136
 42
-0.4142135623730951
 10
102.8464648679474
 20
77.03522663811337
 10
102.8464648679474
 20
77.03522663811337
 10
108.8464648679482
 20
77.03522663811337
 42
0.4142135623730951
 10
109.8464648679482
 20
78.0352266381134
 10
109.8464648679482
 20
79.52876249782878
 10
109.8464648679482
 20
82.03522663811339
 10
112.3464648679487
 20
82.03522663811339
 10
112.3464648679487
 20
84.03522663811337
 10
121.8464648679482
 20
84.03522663811337
 10
121.8464648679482
 20
88.68522663811303
 10
123.1464648679484
 20
90.18522663811348
 10
121.8464648679482
 20
91.68522663811302
 10
121.8464648679482
 20
96.3352266381131
 10
112.3464648679487
 20
96.3352266381131
 10
112.3464648679487
 20
98.33522663811312
 10
109.8464648679482
 20
98.33522663811312
 10
109.8464648679482
 20
110.0352266381134
 42
-0.4142135623730951
 10
111.8464648679482
 20
112.0352266381134
 10
121.8464648679487
 20
112.0352266381134
 10
121.8464648679487
 20
112.335226638113
 10
130.3464648679487
 20
112.335226638113
 10
130.3464648679487
 20
117.1352266381133
 10
121.8464648679487
 20
117.1352266381133
 10
121.8464648679487
 20
136.5352266381129
 42
-0.4142135623730951
 10
123.8464648679487
 20
138.5352266381129
 10
189.7786145185445
 20
138.5352266381129
 42
-0.3152987888789836
 10
192.5976923809021
 20
136.5612870680898
 10
196.7258501095202
 20
125.2192669247643
 42
-0.4400105308918385
 10
195.364102958154
 20
122.6033749855347
 10
195.0700077326409
 20
122.5245724073607
 42
0.3394542588633776
 10
192.8464648679487
 20
119.6267949284935
 10
192.8464648679487
 20
119.0352266381129
 10
192.3464648679487
 20
118.5352266381129
 10
178.8464648679487
 20
118.5352266381129
 10
178.8464648679487
 20
114.0352266381129
 10
176.3464648679487
 20
114.0352266381129
 10
176.3464648679487
 20
106.0352266381129
 10
178.8464648679487
 20
106.0352266381129
 10
178.8464648679487
 20
72.53522663811337
 10
174.8464648679487
 20
72.53522663811293
 10
174.8464648679487
 20
68.5352266381134
 10
178.8464648679487
 20
68.53522663811293
 10
178.8464648679487
 20
66.16008437653602
 10
178.8464648679487
 20
62.53522663811292
 42
-0.4142135623730951
 10
176.8464648679487
 20
60.53522663811293
 10
172.8464648679492
 20
60.53522663811293
 10
114.5416090467933
 20
60.53522663811335
 10
94.84646486794874
 20
60.53522663811335
 42
-0.4142135623730951
 10
91.84646486794877
 20
63.5352266381134
  0
HATCH
  5
4041
330
1F
100
AcDbEntity
  8
Silikon
 62
     1
100
AcDbHatch
 10
0.0
 20
0.0
 30
0.0
210
0.0
220
0.0
230
1.0
  2
ANGLE
 70
     0
 71
     1
 91
        1
 92
        1
 93
        6
 72
     2
 10
194.8464648679484
 20
124.535226638113
 40
1.999999999999923
 50
340.000000000003
 51
434.9999999999984
 73
     0
 72
     1
 10
195.3641029581535
 20
122.603374985535
 11
195.0700077326409
 21
122.5245724073612
 72
     2
 10
195.8464648679483
 20
119.6267949284943
 40
2.999999999999662
 50
104.9999999999995
 51
179.9999999999981
 73
     1
 72
     1
 10
192.8464648679487
 20
119.6267949284944
 11
192.8464648679481
 21
118.0352266381129
 72
     1
 10
192.8464648679481
 20
118.0352266381129
 11
199.2496343770644
 21
118.0352266381129
 72
     1
 10
199.2496343770644
 20
118.0352266381129
 11
196.7258501095202
 21
125.2192669247643
 97
        1
330
4042
 75
     0
 76
     1
 52
90.0
 41
0.1
 77
     0
 78
     2
 53
270.0
 43
534.4402132844699
 44
-296.3587331557005
 45
-0.6985000000000002
 46
0.0
 79
     2
 49
0.508
 49
-0.1905
 53
180.0
 43
534.4402132844699
 44
-296.3587331557005
 45
-0.0000000000000001
 46
0.6985000000000002
 79
     2
 49
0.508
 49
-0.1905
 98
        1
 10
534.4402132844699
 20
-296.3587331557005
1001
ACAD
1010
0.0
1020
0.0
1030
0.0
  0
LWPOLYLINE
  5
4042
102
{ACAD_REACTORS
330
4041
102
}
330
1F
100
AcDbEntity
  8
Silikon
 62
     1
100
AcDbPolyline
 90
        6
 70
     1
 43
0.0
 10
196.7258501095202
 20
125.2192669247643
 42
-0.4400105308918068
 10
195.3641029581535
 20
122.603374985535
 10
195.0700077326409
 20
122.5245724073612
 42
0.3394542588633679
 10
192.8464648679487
 20
119.6267949284944
 10
192.8464648679481
 20
118.0352266381129
 10
199.2496343770644
 20
118.0352266381129
  0
LWPOLYLINE
  5
40BA
330
1F
100
AcDbEntity
  8
Fräsung
100
AcDbPolyline
 90
        4
 70
     0
 43
0.0
 10
112.3464648679487
 20
82.03522663811339
 10
171.8464648679482
 20
82.03522663811339
 10
171.8464648679482
 20
98.33522663811312
 10
112.3464648679487
 20
98.33522663811312
  0
MTEXT
  5
42F7
330
1F
100
AcDbEntity
  8
Bemaßung
100
AcDbMText
 10
141.4074465576496
 20
95.41193719920569
 30
0.0
 40
4.0
 41
15.20500240567617
 71
     1
 72
     5
  1
105/78
  7
RomanS
 73
     1
 44
1.0
1001
ACAD
1000
MTEXTBEGIN
1070
    73
1070
     1
1070
    44
1040
1.0
1070
    74
1070
     0
1000
MTEXTEND
  0
MTEXT
  5
440E
330
1F
100
AcDbEntity
  8
Beschläge
100
AcDbMText
 10
124.6927757372127
 20
57.17574749089167
 30
0.0
 40
2.5
 41
43.03697265052579
 71
     1
 72
     5
  1
{\Fromans|c0;Schlosskasten nur an Schlosseite}
  7
RomanS
 73
     1
 44
1.0
1001
ACAD
1000
MTEXTBEGIN
1070
    73
1070
     1
1070
    44
1040
1.0
1070
    74
1070
     0
1000
MTEXTEND
1000
ACAD_MTEXT_DEFINED_HEIGHT_BEGIN
1070
    46
1040
12.55577350069821
1000
ACAD_MTEXT_DEFINED_HEIGHT_END
  0
INSERT
  5
4763
330
1F
100
AcDbEntity
  8
0
100
AcDbBlockReference
  2
I-BK-Tür_PZ
 10
291.0000000000001
 20
26.08079994679292
 30
0.0
  0
LINE
  5
4766
330
1F
100
AcDbEntity
  8
0
  6
STRICHPUNKT
 48
0.1804
100
AcDbLine
 10
283.0932069577082
 20
37.65234862594538
 30
0.0
 11
289.9309986221556
 21
37.65234862594538
 31
0.0
1001
AcDbBlockRepETag
1070
     1
1071
       32
1005
0
  0
MTEXT
  5
4769
330
1F
100
AcDbEntity
  8
0
100
AcDbMText
 10
287.8074765126289
 20
40.88504263948609
 30
0.0
 40
2.5
 41
1.84181877992887
 71
     1
 72
     5
  1
B
  7
RomanS
 73
     1
 44
1.0
1001
ACAD
1000
MTEXTBEGIN
1070
    73
1070
     1
1070
    44
1040
1.0
1070
    74
1070
     0
1000
MTEXTEND
  0
INSERT
  5
4797
330
1F
100
AcDbEntity
  8
0
100
AcDbBlockReference
  2
I-BK-Tür_Schwelle_PZ
 10
291.0
 20
76.85523631962768
 30
0.0
  0
LINE
  5
47D6
330
1F
100
AcDbEntity
  8
0
  6
STRICHPUNKT
 48
0.1804
100
AcDbLine
 10
274.9067930422921
 20
37.65234862594538
 30
0.0
 11
268.0690013778447
 21
37.65234862594538
 31
0.0
1001
AcDbBlockRepETag
1070
     1
1071
       32
1005
0
  0
MTEXT
  5
47D7
330
1F
100
AcDbEntity
  8
0
100
AcDbMText
 10
270.1925234873713
 20
40.88504263948609
 30
0.0
 40
2.5
 41
1.84181877992887
 71
     3
 72
     5
  1
B
  7
RomanS
 73
     1
 44
1.0
1001
ACAD
1000
MTEXTBEGIN
1070
    73
1070
     1
1070
    44
1040
1.0
1070
    74
1070
     0
1000
MTEXTEND
  0
LINE
  5
47D8
330
1F
100
AcDbEntity
  8
0
  6
STRICHPUNKT
 48
0.1804
100
AcDbLine
 10
283.093206957708
 20
88.42678499878015
 30
0.0
 11
289.9309986221555
 21
88.42678499878015
 31
0.0
1001
AcDbBlockRepETag
1070
     1
1071
       32
1005
0
  0
MTEXT
  5
47D9
330
1F
100
AcDbEntity
  8
0
100
AcDbMText
 10
287.8074765126288
 20
91.65947901232085
 30
0.0
 40
2.5
 41
1.84181877992887
 71
     1
 72
     5
  1
B
  7
RomanS
 73
     1
 44
1.0
1001
ACAD
1000
MTEXTBEGIN
1070
    73
1070
     1
1070
    44
1040
1.0
1070
    74
1070
     0
1000
MTEXTEND
  0
LINE
  5
47DA
330
1F
100
AcDbEntity
  8
0
  6
STRICHPUNKT
 48
0.1804
100
AcDbLine
 10
274.906793042292
 20
88.42678499878015
 30
0.0
 11
268.0690013778445
 21
88.42678499878015
 31
0.0
1001
AcDbBlockRepETag
1070
     1
1071
       32
1005
0
  0
MTEXT
  5
47DB
330
1F
100
AcDbEntity
  8
0
100
AcDbMText
 10
270.1925234873712
 20
91.65947901232085
 30
0.0
 40
2.5
 41
1.84181877992887
 71
     3
 72
     5
  1
B
  7
RomanS
 73
     1
 44
1.0
1001
ACAD
1000
MTEXTBEGIN
1070
    73
1070
     1
1070
    44
1040
1.0
1070
    74
1070
     0
1000
MTEXTEND
  0
LINE
  5
47E4
330
1F
100
AcDbEntity
  8
Achse
100
AcDbLine
 10
205.8510158517508
 20
141.2593354690466
 30
0.0
 11
205.8510158517508
 21
58.16125137375057
 31
0.0
  0
MTEXT
  5
4835
330
1F
100
AcDbEntity
  8
0
100
AcDbMText
 10
8.095834658949003
 20
16.44934439904432
 30
0.0
 40
2.5
 41
119.9402546528737
 71
     1
 72
     5
  1
{\fArial|b1|i0|c0|p34;2)\fArial|b0|i0|c0|p34; SoftLine mit Rundungsradius R5}
 73
     1
 44
1.0
1001
ACAD
1000
MTEXTBEGIN
1070
    73
1070
     1
1070
    44
1040
1.0
1070
    74
1070
     0
1000
MTEXTEND
1000
ACAD_MTEXT_DEFINED_HEIGHT_BEGIN
1070
    46
1040
8.171660040471021
1000
ACAD_MTEXT_DEFINED_HEIGHT_END
  0
MTEXT
  5
48BA
102
{ACAD_REACTORS
330
55A5
102
}
330
1F
100
AcDbEntity
  8
Bemaßung
100
AcDbMText
 10
96.94445405212494
 20
70.62044657673077
 30
0.0
 40
2.5
 41
5.373260390699226
 71
     2
 72
     5
  1
R3\P(R5)
  7
RomanS
 73
     1
 44
1.0
1001
AcDbBlockRepETag
1070
     1
1071
        8
1005
4891
1001
ACAD
1000
MTEXTBEGIN
1070
    73
1070
     1
1070
    44
1040
1.0
1070
    74
1070
     0
1000
MTEXTEND
1000
ACAD_MTEXT_DEFINED_HEIGHT_BEGIN
1070
    46
1040
4.696915190517311
1000
ACAD_MTEXT_DEFINED_HEIGHT_END
  0
DIMENSION
  5
48D9
330
1F
100
AcDbEntity
  8
Bemaßung
100
AcDbDimension
  2
*D3
 10
132.8464648679487
 20
159.0910656118288
 30
0.0
 11
164.8464648679486
 21
160.9660656118288
 31
0.0
 70
    32
 71
     5
 42
63.9999999999998
  3
IDEAL Holz
100
AcDbAlignedDimension
 13
196.8464648679485
 23
159.0910656118288
 33
0.0
 14
132.8464648679487
 24
159.0910656118288
 34
0.0
100
AcDbRotatedDimension
  0
MTEXT
  5
490C
330
1F
100
AcDbEntity
  8
Bemaßung
100
AcDbMText
 10
188.5914865973896
 20
136.487146838517
 30
0.0
 40
2.5
 41
5.373260390699226
 71
     2
 72
     5
  1
R3
  7
RomanS
 73
     1
 44
1.0
1001
AcDbBlockRepETag
1070
     1
1071
        8
1005
4891
1001
ACAD
1000
MTEXTBEGIN
1070
    73
1070
     1
1070
    44
1040
1.0
1070
    74
1070
     0
1000
MTEXTEND
1000
ACAD_MTEXT_DEFINED_HEIGHT_BEGIN
1070
    46
1040
4.696915190517311
1000
ACAD_MTEXT_DEFINED_HEIGHT_END
  0
MTEXT
  5
4916
102
{ACAD_REACTORS
330
55A5
102
}
330
1F
100
AcDbEntity
  8
Bemaßung
100
AcDbMText
 10
100.1720548850035
 20
67.46369694818344
 30
0.0
 40
1.5
 41
7.649234826219069
 71
     1
 72
     5
  1
{\fArial|b1|i0|c0|p34;2)}
 73
     1
 44
1.0
1001
AcDbBlockRepETag
1070
     1
1071
        9
1005
484F
1001
ACAD
1000
MTEXTBEGIN
1070
    73
1070
     1
1070
    44
1040
1.0
1070
    74
1070
     0
1000
MTEXTEND
  0
DIMENSION
  5
4922
330
1F
100
AcDbEntity
  8
Bemaßung
100
AcDbDimension
  2
*D4
 10
91.84646486794877
 20
56.51609523359178
 30
0.0
 11
94.84646486794851
 21
58.39109523359178
 31
0.0
 70
    32
 71
     5
 42
5.999999999999515
  3
IDEAL Holz
100
AcDbAlignedDimension
 13
97.84646486794828
 23
56.51609523359178
 33
0.0
 14
91.84646486794877
 24
56.51609523359178
 34
0.0
100
AcDbRotatedDimension
  0
DIMENSION
  5
495E
330
1F
100
AcDbEntity
  8
Bemaßung
100
AcDbDimension
  2
*D5
 10
97.84646486794876
 20
89.40628089478416
 30
0.0
 11
103.8464648679485
 21
91.28128089478416
 31
0.0
 70
    32
 71
     5
 42
11.99999999999949
  3
IDEAL Holz
100
AcDbAlignedDimension
 13
109.8464648679482
 23
89.40628089478416
 33
0.0
 14
97.84646486794876
 24
89.40628089478416
 34
0.0
100
AcDbRotatedDimension
  0
DIMENSION
  5
4976
330
1F
100
AcDbEntity
  8
Bemaßung
100
AcDbDimension
  2
*D6
 10
117.8464648679483
 20
122.5352266381129
 30
0.0
 11
119.8464648679485
 21
124.4102266381129
 31
0.0
 70
    32
 71
     5
 42
4.000000000000397
  3
IDEAL Holz
100
AcDbAlignedDimension
 13
121.8464648679487
 23
122.5352266381129
 33
0.0
 14
117.8464648679483
 24
122.5352266381129
 34
0.0
100
AcDbRotatedDimension
  0
DIMENSION
  5
498E
330
1F
100
AcDbEntity
  8
Bemaßung
100
AcDbDimension
  2
*D7
 10
54.65153824861408
 20
66.96310803575999
 30
0.0
 11
73.15153824861434
 21
68.83810803575999
 31
0.0
 70
    32
 71
     5
 42
37.00000000000053
  3
IDEAL Holz
100
AcDbAlignedDimension
 13
91.65153824861461
 23
66.96310803575999
 33
0.0
 14
54.65153824861408
 24
66.96310803575999
 34
0.0
100
AcDbRotatedDimension
  0
MTEXT
  5
49C1
330
1F
100
AcDbEntity
  8
Bemaßung
100
AcDbMText
 10
223.2543646495888
 20
149.6682605392075
 30
0.0
 40
2.5
 41
5.373260390699226
 71
     2
 72
     5
  1
R13
  7
RomanS
 73
     1
 44
1.0
1001
AcDbBlockRepETag
1070
     1
1071
        8
1005
4891
1001
ACAD
1000
MTEXTBEGIN
1070
    73
1070
     1
1070
    44
1040
1.0
1070
    74
1070
     0
1000
MTEXTEND
1000
ACAD_MTEXT_DEFINED_HEIGHT_BEGIN
1070
    46
1040
4.696915190517311
1000
ACAD_MTEXT_DEFINED_HEIGHT_END
  0
HATCH
  5
49C3
330
1F
100
AcDbEntity
  8
Schraffur
 62
     5
100
AcDbHatch
 10
0.0
 20
0.0
 30
0.0
210
0.0
220
0.0
230
1.0
  2
STEEL
 70
     0
 71
     0
 91
        1
 92
        1
 93
        9
 72
     1
 10
223.8675915555656
 20
167.4603423306858
 11
213.1589183463218
 21
167.4603423306858
 72
     2
 10
226.1023194675231
 20
178.4816111966424
 40
17.00000000000057
 50
139.5857010460624
 51
220.2262621168522
 73
     0
 72
     1
 10
213.1228178327758
 20
189.4603423306858
 11
224.797665824064
 21
189.4603423306858
 72
     2
 10
224.7976658240637
 20
176.4603423306859
 40
12.99999999999992
 50
270.0000000000009
 51
340.0000000000002
 73
     0
 72
     1
 10
237.0136698942804
 20
180.9066041939195
 11
238.746976797137
 21
176.1443826173372
 72
     2
 10
236.867591555565
 20
175.4603423306859
 40
2.000000000000149
 50
340.0000000000033
 51
450.0000000000036
 73
     0
 72
     1
 10
236.867591555565
 20
173.4603423306858
 11
224.8675915555657
 21
173.4603423306858
 72
     2
 10
224.8675915555657
 20
172.4603423306858
 40
0.9999999999999998
 50
90.0
 51
180.0
 73
     1
 72
     1
 10
223.8675915555656
 20
172.4603423306858
 11
223.8675915555656
 21
167.4603423306858
 97
        0
 75
     0
 76
     1
 52
0.0
 41
2.0
 77
     0
 78
     2
 53
45.0
 43
7.296568183757131
 44
0.0
 45
-4.490128060534575
 46
4.490128060534575
 79
     0
 53
45.0
 43
7.296568183757131
 44
3.174999999999998
 45
-4.490128060534575
 46
4.490128060534575
 79
     0
 98
        5
 10
7.296568183757131
 20
0.0
 10
7.296568183757131
 20
0.0
 10
143.3442530190035
 20
334.9175379016908
 10
222.7553165790544
 20
181.9526565837238
 10
103.8498045358246
 20
191.8337822138906
1001
AcDbBlockRepETag
1070
     1
1071
        0
1005
49C3
1001
ACAD
1010
0.0
1020
0.0
1030
0.0
  0
HATCH
  5
49C4
330
1F
100
AcDbEntity
  8
Schraffur
 62
    84
100
AcDbHatch
 10
0.0
 20
0.0
 30
0.0
210
0.0
220
0.0
230
1.0
  2
STEEL
 70
     0
 71
     0
 91
        2
 92
        1
 93
       13
 72
     1
 10
215.211145766294
 20
133.571732098085
 11
213.1589183463218
 21
133.571732098085
 72
     2
 10
226.102319467523
 20
144.5930009640416
 40
17.0000000000005
 50
139.5857010460624
 51
220.4583214417465
 73
     0
 72
     1
 10
213.1673902186002
 20
155.6242114744698
 11
219.1412200347925
 21
155.6242114744698
 72
     2
 10
219.141220034792
 20
142.6242114744697
 40
13.00000000000012
 50
270.000000000002
 51
339.9999999999974
 73
     0
 72
     1
 10
231.3572241050087
 20
147.070473337704
 11
233.0905310078695
 21
142.3082517611085
 72
     1
 10
233.0905310078695
 20
142.3082517611085
 11
233.1054186625834
 21
142.2658735306816
 72
     2
 10
231.211145766294
 20
141.6242114744694
 40
1.999999999999771
 50
341.2868106197552
 51
435.0000000000021
 73
     0
 72
     1
 10
231.728783856499
 20
139.6923598218915
 11
231.4346886309863
 21
139.6135572437176
 72
     2
 10
232.2111457662936
 20
136.7157797648506
 40
2.999999999999761
 50
104.9999999999954
 51
180.0000000000107
 73
     1
 72
     1
 10
229.2111457662938
 20
136.71577976485
 11
229.2111457662941
 21
136.1242114744697
 72
     1
 10
229.211145766294
 20
136.1242114744697
 11
228.7111457662938
 21
135.6242114744697
 72
     1
 10
228.7111457662938
 20
135.6242114744697
 11
215.211145766294
 21
135.6242114744697
 72
     1
 10
215.211145766294
 20
135.6242114744697
 11
215.211145766294
 21
133.571732098085
 97
        0
 92
       24
 93
        4
 72
     1
 10
220.3793646495888
 20
150.2932605392075
 11
226.1293646495888
 21
150.2932605392075
 72
     1
 10
226.1293646495888
 20
150.2932605392075
 11
226.1293646495888
 21
146.5432605392075
 72
     1
 10
226.1293646495888
 20
146.5432605392075
 11
220.3793646495888
 21
146.5432605392075
 72
     1
 10
220.3793646495888
 20
146.5432605392075
 11
220.3793646495888
 21
150.2932605392075
 97
        0
 75
     0
 76
     1
 52
90.0
 41
2.0
 77
     0
 78
     2
 53
135.0
 43
7.296568183757131
 44
0.0
 45
-4.490128060534575
 46
-4.490128060534575
 79
     0
 53
135.0
 43
4.121568183757132
 44
0.0000000000000002
 45
-4.490128060534575
 46
-4.490128060534575
 79
     0
 98
        5
 10
7.296568183757131
 20
0.0
 10
7.296568183757131
 20
0.0
 10
142.5921751642126
 20
306.6991726977448
 10
220.1279868379385
 20
142.7453030522226
 10
87.9894910135629
 20
142.7453030522226
1001
AcDbBlockRepETag
1070
     1
1071
        1
1005
49C4
1001
ACAD
1010
0.0
1020
0.0
1030
0.0
  0
LWPOLYLINE
  5
49C5
102
{ACAD_REACTORS
330
49D7
102
}
330
1F
100
AcDbEntity
  8
Flügelrahmen
100
AcDbPolyline
 90
        4
 70
     0
 43
0.0
 10
242.1807394024626
 20
172.9603423306863
 10
229.8675915555656
 20
172.9603423306863
 42
0.4142135623730951
 10
227.8675915555656
 20
170.9603423306863
 10
227.8675915555656
 20
161.573512412534
1001
AcDbBlockRepETag
1070
     1
1071
        2
1005
49C5
  0
LWPOLYLINE
  5
49C6
102
{ACAD_REACTORS
330
49D7
330
49DA
102
}
330
1F
100
AcDbEntity
  8
0
100
AcDbPolyline
 90
        2
 70
     1
 43
0.0
 10
227.4772827854831
 20
161.5373060803421
 42
-24.68742596468933
 10
224.727356149563
 20
161.5373060803421
 42
-24.68742596468933
1001
AcDbBlockRepETag
1070
     1
1071
        3
1005
49C6
  0
HATCH
  5
49D2
330
1F
100
AcDbEntity
  8
Silikon
 62
     1
100
AcDbHatch
 10
0.0
 20
0.0
 30
0.0
210
0.0
220
0.0
230
1.0
  2
ANGLE
 70
     0
 71
     1
 91
        1
 92
        1
 93
        6
 72
     2
 10
231.2111457662961
 20
141.6242114744633
 40
1.999999999999879
 50
340.0000000000066
 51
435.0000000000011
 73
     0
 72
     1
 10
231.7287838565011
 20
139.6923598218853
 11
231.4346886309885
 21
139.6135572437112
 72
     2
 10
232.2111457662959
 20
136.7157797648442
 40
2.999999999999758
 50
104.9999999999979
 51
179.9999999999962
 73
     1
 72
     1
 10
229.2111457662961
 20
136.7157797648444
 11
229.2111457662957
 21
135.1242114744629
 72
     1
 10
229.2111457662957
 20
135.1242114744629
 11
235.6143152754117
 21
135.1242114744629
 72
     1
 10
235.6143152754117
 20
135.1242114744629
 11
233.0905310078679
 21
142.3082517611144
 97
        1
330
49D3
 75
     0
 76
     1
 52
270.0
 41
0.1
 77
     0
 78
     2
 53
270.0
 43
570.8048941828174
 44
-279.2697483193497
 45
-0.6985000000000002
 46
0.0000000000000001
 79
     2
 49
0.508
 49
-0.1905
 53
180.0
 43
570.8048941828174
 44
-279.2697483193497
 45
0.0000000000000001
 46
0.6985000000000002
 79
     2
 49
0.508
 49
-0.1905
 98
        1
 10
570.8048941828174
 20
-279.2697483193497
1001
ACAD
1010
0.0
1020
0.0
1030
0.0
1001
AcDbBlockRepETag
1070
     1
1071
       15
1005
49D2
  0
LWPOLYLINE
  5
49D3
102
{ACAD_REACTORS
330
49D2
102
}
330
1F
100
AcDbEntity
  8
Silikon
 62
     1
100
AcDbPolyline
 90
        6
 70
     1
 43
0.0
 10
233.0905310078679
 20
142.3082517611144
 42
-0.4400105308918068
 10
231.7287838565011
 20
139.6923598218853
 10
231.4346886309885
 20
139.6135572437112
 42
0.3394542588633679
 10
229.2111457662961
 20
136.7157797648444
 10
229.2111457662957
 20
135.1242114744629
 10
235.6143152754117
 20
135.1242114744629
1001
AcDbBlockRepETag
1070
     1
1071
       16
1005
49D3
  0
LWPOLYLINE
  5
49D4
330
1F
100
AcDbEntity
  8
Flügelrahmen
100
AcDbPolyline
 90
       13
 70
     0
 43
0.0
 10
213.1673902185998
 20
155.6242114744698
 10
215.2111457662935
 20
155.6242114744698
 10
219.1412200347925
 20
155.6242114744698
 42
-0.3152987888789831
 10
231.357224105009
 20
147.070473337703
 10
233.0905310078656
 20
142.3082517611207
 42
-0.4400105308918346
 10
231.728783856499
 20
139.6923598218916
 10
231.4346886309863
 20
139.6135572437176
 42
0.3394542588633779
 10
229.2111457662938
 20
136.7157797648502
 10
229.211145766294
 20
136.1242114744697
 10
228.7111457662938
 20
135.6242114744697
 10
215.211145766294
 20
135.6242114744697
 10
215.211145766294
 20
135.6242114744697
 10
215.211145766294
 20
131.5399424944846
1001
AcDbBlockRepETag
1070
     1
1071
       17
1005
49D4
  0
LWPOLYLINE
  5
49D5
102
{ACAD_REACTORS
330
49DA
102
}
330
1F
100
AcDbEntity
  8
Blendrahmen
100
AcDbPolyline
 90
        9
 70
     0
 43
0.0
 10
223.8675915555656
 20
161.6291338962719
 10
223.8675915555656
 20
172.4603423306858
 42
-0.4142135623730951
 10
224.8675915555657
 20
173.4603423306858
 10
236.867591555565
 20
173.4603423306858
 42
0.5205670505517467
 10
238.746976797137
 20
176.1443826173372
 10
237.0136698942804
 20
180.9066041939195
 42
0.3152987888789794
 10
224.797665824064
 20
189.4603423306858
 10
223.8675915555656
 20
189.4603423306858
 10
213.1228178327765
 20
189.4603423306858
1001
AcDbBlockRepETag
1070
     1
1071
       18
1005
49D5
  0
TEXT
  5
49D6
330
1F
100
AcDbEntity
  8
0
100
AcDbText
 10
211.2431939695611
 20
197.557568429655
 30
0.0
 40
3.5
  1
Variante Softline
 41
0.7
  7
RomanS
100
AcDbText
1001
AcDbBlockRepETag
1070
     1
1071
       19
1005
49D6
  0
HATCH
  5
49D7
330
1F
100
AcDbEntity
  8
Schraffur
 62
    84
100
AcDbHatch
 10
0.0
 20
0.0
 30
0.0
210
0.0
220
0.0
230
1.0
  2
STEEL
 70
     0
 71
     1
 91
        1
 92
        7
 72
     1
 73
     1
 93
        4
 10
242.1807394803806
 20
172.9603423306863
 42
0.0
 10
229.8675915555656
 20
172.9603423306863
 42
0.4142135623730951
 10
227.8675915555656
 20
170.9603423306863
 42
0.0
 10
227.8675915555656
 20
161.5735121179407
 42
0.2918872669977612
 97
        2
330
49C5
330
49C6
 75
     0
 76
     1
 52
360.0
 41
2.0
 77
     0
 78
     2
 53
135.0
 43
242.9909297001233
 44
158.0049527465517
 45
4.490128060534574
 46
4.490128060534575
 79
     0
 53
135.0
 43
242.9909297001233
 44
161.1799527465517
 45
4.490128060534574
 46
4.490128060534575
 79
     0
 47
0.1645939949470616
 98
        1
 10
234.2824893845907
 20
168.1718347611868
1001
ACAD
1010
0.0
1020
0.0
1030
0.0
1001
AcDbBlockRepETag
1070
     1
1071
       21
1005
49D7
  0
LINE
  5
49D8
330
1F
100
AcDbEntity
  8
Schraffur
 62
    84
100
AcDbLine
 10
213.1589183463218
 20
133.571732098085
 30
0.0
 11
215.211145766294
 21
133.571732098085
 31
0.0
1001
AcDbBlockRepETag
1070
     1
1071
       22
1005
49D8
  0
LINE
  5
49D9
102
{ACAD_REACTORS
330
49DA
102
}
330
1F
100
AcDbEntity
  8
Schraffur
 62
     5
100
AcDbLine
 10
223.8675915555656
 20
167.4603423306858
 30
0.0
 11
213.1589183463219
 21
167.4603423306858
 31
0.0
1001
AcDbBlockRepETag
1070
     1
1071
       23
1005
49D9
  0
HATCH
  5
49DA
330
1F
100
AcDbEntity
  8
Schraffur
 62
     5
100
AcDbHatch
 10
0.0
 20
0.0
 30
0.0
210
0.0
220
0.0
230
1.0
  2
STEEL
 70
     0
 71
     1
 91
        1
 92
        7
 72
     1
 73
     1
 93
        3
 10
223.8675915555656
 20
161.6291338962709
 42
0.0
 10
223.8675915555656
 20
167.4603423306858
 42
0.0
 10
213.1589183463215
 20
167.4603423306858
 42
0.1854836782163116
 97
        3
330
49D9
330
49D5
330
49C6
 75
     0
 76
     1
 52
360.0
 41
2.0
 77
     0
 78
     2
 53
135.0
 43
243.0466245838236
 44
157.4816111966419
 45
4.490128060534574
 46
4.490128060534575
 79
     0
 53
135.0
 43
243.0466245838236
 44
160.6566111966419
 45
4.490128060534574
 46
4.490128060534575
 79
     0
 47
0.0808233019568123
 98
        1
 10
220.6433467849053
 20
164.895580596043
1001
ACAD
1010
0.0
1020
0.0
1030
0.0
1001
AcDbBlockRepETag
1070
     1
1071
       24
1005
49DA
  0
HATCH
  5
49DC
330
1F
100
AcDbEntity
  8
Schraffur
 62
     5
100
AcDbHatch
 10
0.0
 20
0.0
 30
0.0
210
0.0
220
0.0
230
1.0
  2
STEEL
 70
     0
 71
     0
 91
        1
 92
        1
 93
       13
 72
     1
 10
261.8675915314582
 20
167.4603420335752
 11
251.1589185993118
 21
167.4603420335752
 72
     2
 10
264.1023194675248
 20
178.481611196642
 40
17.00000000000074
 50
-220.4143002691367
 51
-139.7737391946899
 73
     0
 72
     1
 10
251.1228175814663
 20
189.4603420335751
 11
266.6210743297877
 21
189.4603420335751
 72
     2
 10
266.6210743297879
 20
185.4603420335751
 40
4.000000000000015
 50
-90.00000000000381
 51
-20.00000000000382
 73
     0
 72
     1
 10
270.3798448129315
 20
186.828422606878
 11
270.5588121955395
 21
186.3367137643436
 72
     2
 10
272.4381974371109
 20
187.0207540509951
 40
1.999999999999667
 50
560.0000000000099
 51
610.0000000000102
 73
     1
 72
     1
 10
271.7541571504601
 20
185.1413688094235
 11
272.4201569080084
 21
184.8989647216465
 72
     2
 10
271.3940964780318
 20
182.0798868592887
 40
3.000000000000149
 50
-70.00000000001051
 51
-20.00000000000901
 73
     0
 72
     1
 10
274.2131743403896
 20
183.105947289266
 11
276.7469767730302
 21
176.1443823202266
 72
     2
 10
274.8675915314582
 20
175.4603420335753
 40
2.000000000000095
 50
-19.9999999999985
 51
90.00000000000158
 73
     0
 72
     1
 10
274.8675915314582
 20
173.4603420335751
 11
262.8675915314582
 21
173.4603420335751
 72
     2
 10
262.8675915314582
 20
172.4603420335751
 40
0.9999999999999998
 50
450.0
 51
540.0
 73
     1
 72
     1
 10
261.8675915314582
 20
172.4603420335751
 11
261.8675915314582
 21
167.4603420335752
 97
        0
 75
     0
 76
     1
 52
270.0
 41
2.0
 77
     0
 78
     2
 53
225.0
 43
465.1165310243521
 44
205.5796328668693
 45
-4.490128060534574
 46
4.490128060534575
 79
     0
 53
225.0
 43
461.9415310243521
 44
205.5796328668693
 45
-4.490128060534574
 46
4.490128060534575
 79
     0
 98
        3
 10
261.0262035960275
 20
178.4922218596368
 10
340.4372671560785
 20
25.52734054166994
 10
221.5317551128484
 20
35.40846617183671
1001
ACAD
1010
0.0
1020
0.0
1030
0.0
1001
AcDbBlockRepETag
1070
     1
1071
        0
1005
49DC
  0
HATCH
  5
49DD
330
1F
100
AcDbEntity
  8
Schraffur
 62
    84
100
AcDbHatch
 10
0.0
 20
0.0
 30
0.0
210
0.0
220
0.0
230
1.0
  2
STEEL
 70
     0
 71
     0
 91
        1
 92
        7
 72
     1
 73
     1
 93
       16
 10
253.211145766298
 20
135.624211474462
 42
0.0
 10
253.211145766298
 20
131.5399424944815
 42
-0.4173735883527943
 10
251.167390218596
 20
155.624211474462
 42
0.0
 10
260.9646285646278
 20
155.624211474462
 42
-0.3152987888789831
 10
264.7233990477712
 20
152.9922920477648
 42
0.0
 10
264.9023664303792
 20
152.5005832052303
 42
0.2216946626429416
 10
266.0977113852997
 20
151.3052382503102
 42
0.0
 10
266.7637111428486
 20
151.0628341625339
 42
-0.2216946626429467
 10
268.5567285752291
 20
149.2698167301529
 42
0.0
 10
271.0905310078705
 20
142.3082517611112
 42
0.0
 10
271.1054186625843
 20
142.2658735306846
 42
-0.4333251351469773
 10
269.7287838565031
 20
139.6923598218838
 42
0.0
 10
269.4346886309905
 20
139.6135572437103
 42
0.3394542588635136
 10
267.211145766298
 20
136.7157797648425
 42
0.0
 10
267.2111457662985
 20
136.124211474462
 42
0.0
 10
266.7111457662981
 20
135.624211474462
 42
0.0
 97
        0
 75
     0
 76
     1
 52
360.0
 41
2.0
 77
     0
 78
     2
 53
134.9999999999999
 43
431.2279207917508
 44
171.691022634268
 45
4.490128060534575
 46
4.490128060534573
 79
     0
 53
134.9999999999999
 43
431.2279207917508
 44
174.866022634268
 45
4.490128060534575
 46
4.490128060534573
 79
     0
 47
0.5460268397635694
 98
        3
 10
260.2741257412365
 20
150.2738566556903
 10
337.8099374149621
 20
-13.68001298983179
 10
205.6714415905865
 20
-13.68001298983179
1001
ACAD
1010
0.0
1020
0.0
1030
0.0
1001
AcDbBlockRepETag
1070
     1
1071
        1
1005
49DD
  0
LWPOLYLINE
  5
49DE
102
{ACAD_REACTORS
330
49F2
102
}
330
1F
100
AcDbEntity
  8
Blendrahmen
100
AcDbPolyline
 90
       12
 70
     0
 43
0.0
 10
261.8675915314582
 20
161.6291338994679
 10
261.8675915314582
 20
172.4603420335751
 42
-0.4142135623730951
 10
262.8675915314582
 20
173.4603420335751
 10
274.8675915314582
 20
173.4603420335751
 42
0.5205670505517467
 10
276.7469767730302
 20
176.1443823202266
 10
274.2131743403896
 20
183.105947289266
 42
0.2216946626429468
 10
272.4201569080084
 20
184.8989647216465
 10
271.7541571504601
 20
185.1413688094235
 42
-0.2216946626429416
 10
270.5588121955395
 20
186.3367137643436
 10
270.3798448129315
 20
186.828422606878
 42
0.3152987888789831
 10
266.6210743297877
 20
189.4603420335751
 10
251.1228175814681
 20
189.4603420335751
1001
AcDbBlockRepETag
1070
     1
1071
        2
1005
49DE
  0
TEXT
  5
49DF
330
1F
100
AcDbEntity
  8
0
100
AcDbText
 10
248.7560342495608
 20
196.7937884682582
 30
0.0
 40
3.5
  1
Variante Rustikal
 41
0.7
  7
RomanS
100
AcDbText
1001
AcDbBlockRepETag
1070
     1
1071
        3
1005
49DF
  0
LWPOLYLINE
  5
49E0
102
{ACAD_REACTORS
330
49F0
102
}
330
1F
100
AcDbEntity
  8
Flügelrahmen
100
AcDbPolyline
 90
        4
 70
     0
 43
0.0
 10
280.1807393783555
 20
172.9603420335751
 10
267.8675915314583
 20
172.9603420335751
 42
0.4142135623730951
 10
265.8675915314582
 20
170.9603420335752
 10
265.8675915314582
 20
161.5735121154234
1001
AcDbBlockRepETag
1070
     1
1071
        4
1005
49E0
  0
LWPOLYLINE
  5
49E1
102
{ACAD_REACTORS
330
49F0
330
49F2
102
}
330
1F
100
AcDbEntity
  8
0
100
AcDbPolyline
 90
        2
 70
     1
 43
0.0
 10
265.4772827854848
 20
161.5373060803415
 42
-24.68742596468933
 10
262.7273561495648
 20
161.5373060803415
 42
-24.68742596468933
1001
AcDbBlockRepETag
1070
     1
1071
        5
1005
49E1
  0
HATCH
  5
49ED
330
1F
100
AcDbEntity
  8
Silikon
 62
     1
100
AcDbHatch
 10
0.0
 20
0.0
 30
0.0
210
0.0
220
0.0
230
1.0
  2
ANGLE
 70
     0
 71
     1
 91
        1
 92
        1
 93
        6
 72
     2
 10
269.2111457662979
 20
141.6242114744623
 40
2.000000000000222
 50
340.0000000000058
 51
435.0000000000004
 73
     0
 72
     1
 10
269.728783856503
 20
139.692359821884
 11
269.4346886309901
 21
139.61355724371
 72
     2
 10
270.2111457662973
 20
136.7157797648433
 40
2.999999999999412
 50
104.9999999999963
 51
179.9999999999945
 73
     1
 72
     1
 10
267.2111457662979
 20
136.7157797648436
 11
267.2111457662975
 21
135.1242114744621
 72
     1
 10
267.2111457662975
 20
135.1242114744621
 11
273.6143152754134
 21
135.1242114744621
 72
     1
 10
273.6143152754134
 20
135.1242114744621
 11
271.09053100787
 21
142.3082517611136
 97
        1
330
49EE
 75
     0
 76
     1
 52
270.0
 41
0.1
 77
     0
 78
     2
 53
270.0
 43
608.8048941828189
 44
-279.269748319351
 45
-0.6985000000000002
 46
0.0000000000000003
 79
     2
 49
0.508
 49
-0.1905
 53
180.0
 43
608.8048941828189
 44
-279.269748319351
 45
0.0000000000000003
 46
0.6985000000000002
 79
     2
 49
0.508
 49
-0.1905
 98
        1
 10
608.8048941828189
 20
-279.269748319351
1001
ACAD
1010
0.0
1020
0.0
1030
0.0
1001
AcDbBlockRepETag
1070
     1
1071
       17
1005
49ED
  0
LWPOLYLINE
  5
49EE
102
{ACAD_REACTORS
330
49ED
102
}
330
1F
100
AcDbEntity
  8
Silikon
 62
     1
100
AcDbPolyline
 90
        6
 70
     1
 43
0.0
 10
271.09053100787
 20
142.3082517611136
 42
-0.4400105308918068
 10
269.728783856503
 20
139.692359821884
 10
269.4346886309901
 20
139.61355724371
 42
0.3394542588633679
 10
267.2111457662979
 20
136.7157797648436
 10
267.2111457662975
 20
135.1242114744621
 10
273.6143152754134
 20
135.1242114744621
1001
AcDbBlockRepETag
1070
     1
1071
       18
1005
49EE
  0
LWPOLYLINE
  5
49EF
330
1F
100
AcDbEntity
  8
Flügelrahmen
100
AcDbPolyline
 90
       15
 70
     0
 43
0.0
 10
253.2111457662979
 20
131.5399424944819
 10
253.2111457662979
 20
135.6242114744621
 10
266.7111457662979
 20
135.6242114744621
 10
267.2111457662983
 20
136.1242114744621
 10
267.2111457662979
 20
136.7157797648427
 42
-0.3394542588633798
 10
269.4346886309904
 20
139.6135572437104
 10
269.728783856503
 20
139.692359821884
 42
0.4400105308918374
 10
271.09053100787
 20
142.3082517611136
 10
268.556728575229
 20
149.2698167301531
 42
0.2216946626429468
 10
266.7637111428486
 20
151.062834162534
 10
266.0977113852997
 20
151.3052382503104
 42
-0.2216946626429416
 10
264.9023664303791
 20
152.5005832052305
 10
264.7233990477711
 20
152.992292047765
 42
0.3152987888789831
 10
260.9646285646277
 20
155.6242114744621
 10
251.1673902185962
 20
155.6242114744621
1001
AcDbBlockRepETag
1070
     1
1071
       19
1005
49EF
  0
HATCH
  5
49F0
330
1F
100
AcDbEntity
  8
Schraffur
 62
    84
100
AcDbHatch
 10
0.0
 20
0.0
 30
0.0
210
0.0
220
0.0
230
1.0
  2
STEEL
 70
     0
 71
     1
 91
        1
 92
        7
 72
     1
 73
     1
 93
        4
 10
267.8675915314582
 20
172.9603420335751
 42
0.4142135623730951
 10
265.8675915314582
 20
170.9603420335751
 42
0.0
 10
265.8675915314582
 20
161.573512115423
 42
0.2918872623713088
 10
280.1807393783553
 20
172.9603420335751
 42
0.0
 97
        2
330
49E0
330
49E1
 75
     0
 76
     1
 52
360.0
 41
2.0
 77
     0
 78
     2
 53
134.9999999999999
 43
264.102319467525
 44
157.4816111966413
 45
4.490128060534575
 46
4.490128060534574
 79
     0
 53
134.9999999999999
 43
264.102319467525
 44
160.6566111966411
 45
4.490128060534575
 46
4.490128060534574
 79
     0
 47
0.1645810927600751
 98
        1
 10
272.1260775817402
 20
169.4929718935993
1001
ACAD
1010
0.0
1020
0.0
1030
0.0
1001
AcDbBlockRepETag
1070
     1
1071
       20
1005
49F0
  0
LINE
  5
49F1
102
{ACAD_REACTORS
330
49F2
102
}
330
1F
100
AcDbEntity
  8
Schraffur
 62
     5
100
AcDbLine
 10
251.1589185993119
 20
167.4603420335752
 30
0.0
 11
261.8675915314582
 21
167.4603420335752
 31
0.0
1001
AcDbBlockRepETag
1070
     1
1071
       21
1005
49F1
  0
HATCH
  5
49F2
330
1F
100
AcDbEntity
  8
Schraffur
 62
     5
100
AcDbHatch
 10
0.0
 20
0.0
 30
0.0
210
0.0
220
0.0
230
1.0
  2
STEEL
 70
     0
 71
     1
 91
        1
 92
        7
 72
     1
 73
     1
 93
        3
 10
261.8675915314582
 20
161.6291338994673
 42
0.0
 10
261.8675915314582
 20
167.4603420335752
 42
0.0
 10
251.1589185993118
 20
167.4603420335752
 42
0.1854836719102869
 97
        3
330
49F1
330
49DE
330
49E1
 75
     0
 76
     1
 52
360.0
 41
2.0
 77
     0
 78
     2
 53
134.9999999999999
 43
281.0466245838256
 44
157.4816111966413
 45
4.490128060534575
 46
4.490128060534574
 79
     0
 53
134.9999999999999
 43
281.0466245838256
 44
160.6566111966411
 45
4.490128060534575
 46
4.490128060534574
 79
     0
 47
0.138199607233765
 98
        1
 10
257.2268630418002
 20
164.6585270846482
1001
ACAD
1010
0.0
1020
0.0
1030
0.0
1001
AcDbBlockRepETag
1070
     1
1071
       22
1005
49F2
  0
LINE
  5
49F3
330
1F
100
AcDbEntity
  8
Schraffur
 62
    84
100
AcDbLine
 10
251.1144152049683
 20
133.6242114744621
 30
0.0
 11
253.2111457662979
 21
133.6242114744621
 31
0.0
1001
AcDbBlockRepETag
1070
     1
1071
       23
1005
49F3
  0
INSERT
  5
4CE1
102
{ACAD_XDICTIONARY
360
5AE1
102
}
330
1F
100
AcDbEntity
  8
0
100
AcDbBlockReference
  2
D-Mitteldichtung
 10
130.3464648679487
 20
112.3352266381132
 30
0.0
 50
270.0
  0
INSERT
  5
4CE3
330
1F
100
AcDbEntity
  8
0
100
AcDbBlockReference
  2
D-Überschlag
 10
107.3464648679483
 20
71.0352266381136
 30
0.0
 41
-1.0
 50
90.0
  0
HATCH
  5
4D81
330
1F
100
AcDbEntity
  8
Schraffur
 62
     5
100
AcDbHatch
 10
0.0
 20
0.0
 30
0.0
210
0.0
220
0.0
230
1.0
  2
STEEL
 70
     0
 71
     0
 91
        1
 92
        7
 72
     1
 73
     1
 93
        4
 10
85.15227133117374
 20
43.03505114249488
 42
-0.2201914815091852
 10
97.79582231683537
 20
49.67411250791627
 42
0.0
 10
97.79582231683399
 20
45.03505114249532
 42
-0.4142135623730951
 10
95.79582231683394
 20
43.03505114249484
 42
0.0
 97
        0
 75
     0
 76
     1
 52
90.0
 41
2.0
 77
     0
 78
     2
 53
135.0
 43
0.0
 44
0.0
 45
-4.490128060534575
 46
-4.490128060534575
 79
     0
 53
135.0
 43
-3.174999999999998
 44
0.0000000000000002
 45
-4.490128060534575
 46
-4.490128060534575
 79
     0
 47
0.1946356827982703
 98
        3
 10
132.2199282699638
 20
189.2062376860605
 10
211.6309918300147
 20
36.2413563680936
 10
92.72547978678485
 20
46.1224819982604
1001
AcDbBlockRepETag
1070
     1
1071
        0
1005
0
1001
ACAD
1010
0.0
1020
0.0
1030
0.0
  0
CIRCLE
  5
4D82
330
1F
100
AcDbEntity
  8
0
100
AcDbCircle
 10
98.64640784737325
 20
32.69540512910663
 30
0.0
 40
17.0
1001
AcDbBlockRepETag
1070
     1
1071
        2
1005
0
  0
TEXT
  5
4D83
330
1F
100
AcDbEntity
  8
0
100
AcDbText
 10
48.15955822633385
 20
42.84987124217034
 30
0.0
 40
2.5
  1
Dichtung am Überschlag
 41
0.7
  7
RomanS
100
AcDbText
1001
AcDbBlockRepETag
1070
     1
1071
        3
1005
0
  0
TEXT
  5
4D84
330
1F
100
AcDbEntity
  8
0
100
AcDbText
 10
50.88634639305431
 20
48.1010389680576
 30
0.0
 40
3.5
  1
optional ohne
 41
0.7
  7
RomanS
100
AcDbText
1001
AcDbBlockRepETag
1070
     1
1071
        4
1005
0
  0
LWPOLYLINE
  5
4D85
330
1F
100
AcDbEntity
  8
Blendrahmen
100
AcDbPolyline
 90
        4
 70
     0
 43
0.0
 10
97.79582231683537
 20
49.67411250791627
 10
97.79582231683399
 20
45.03505114249532
 42
-0.4142135623730951
 10
95.79582231683394
 20
43.03505114249484
 10
85.152271331174
 20
43.03505114249488
1001
AcDbBlockRepETag
1070
     1
1071
        5
1005
0
  0
MTEXT
  5
4D86
330
1F
100
AcDbEntity
  8
0
100
AcDbMText
 10
81.51629207255412
 20
47.09712689453062
 30
0.0
 40
1.5
 41
7.649234826219069
 71
     1
 72
     5
  1
{\fArial|b1|i0|c0|p34;2)}
 73
     1
 44
1.0
1001
AcDbBlockRepETag
1070
     1
1071
        9
1005
0
1001
ACAD
1000
MTEXTBEGIN
1070
    73
1070
     1
1070
    44
1040
1.0
1070
    74
1070
     0
1000
MTEXTEND
  0
HATCH
  5
4D87
330
1F
100
AcDbEntity
  8
Schraffur
 62
    84
100
AcDbHatch
 10
0.0
 20
0.0
 30
0.0
210
0.0
220
0.0
230
1.0
  2
STEEL
 70
     0
 71
     0
 91
        2
 92
        7
 72
     1
 73
     1
 93
       10
 10
114.4909664956801
 20
26.53505114249498
 42
0.0929698536557737
 10
115.6464078473732
 20
32.69540512910663
 42
0.2161598543550312
 10
109.8464648679481
 20
45.48441301618963
 42
0.0
 10
109.8464648679488
 20
43.03505114249484
 42
0.0
 10
102.8464648679479
 20
43.03505114249484
 42
0.0
 10
93.84646486794862
 20
43.03505114249484
 42
0.4142135623730951
 10
91.84646486794873
 20
41.03505114249485
 42
0.0
 10
91.84646486794873
 20
35.03505114249521
 42
0.0
 10
91.84646486794873
 20
29.53505114249522
 42
0.4142135623730951
 10
94.84646486794874
 20
26.53505114249498
 42
0.0
 97
        0
 92
       24
 93
        4
 72
     1
 10
92.93786247011992
 20
36.42210391151394
 11
99.27119580345335
 21
36.42210391151394
 72
     1
 10
99.27119580345335
 20
36.42210391151394
 11
99.27119580345335
 21
27.19591343532349
 72
     1
 10
99.27119580345335
 20
27.19591343532349
 11
92.93786247011992
 21
27.19591343532349
 72
     1
 10
92.93786247011992
 20
27.19591343532349
 11
92.93786247011992
 21
36.42210391151394
 97
        0
 75
     0
 76
     1
 52
-0.0000000000000127
 41
2.0
 77
     0
 78
     2
 53
45.0
 43
-240.8583642604913
 44
912.705627826291
 45
-4.490128060534574
 46
4.490128060534575
 79
     0
 53
45.0
 43
-240.8583642604913
 44
915.8806278262908
 45
-4.490128060534574
 46
4.490128060534575
 79
     0
 47
0.4247652808687849
 98
        1
 10
106.5249302518969
 20
32.35285596386933
1001
ACAD
1010
0.0
1020
0.0
1030
0.0
  0
MTEXT
  5
4D88
330
1F
100
AcDbEntity
  8
Bemaßung
100
AcDbMText
 10
96.1045291367867
 20
27.96578934611654
 30
0.0
 40
2.5
 41
4.543296159483361
 71
     8
 72
     5
  1
R3\P(R5)
  7
RomanS
 73
     1
 44
1.0
1001
ACAD
1000
MTEXTBEGIN
1070
    73
1070
     1
1070
    44
1040
1.0
1070
    74
1070
     0
1000
MTEXTEND
1000
ACAD_MTEXT_DEFINED_HEIGHT_BEGIN
1070
    46
1040
7.831314565397414
1000
ACAD_MTEXT_DEFINED_HEIGHT_END
  0
LWPOLYLINE
  5
4D89
330
1F
100
AcDbEntity
  8
Flügelrahmen
100
AcDbPolyline
 90
       11
 70
     0
 43
0.0
 10
114.4909664956801
 20
26.53505114249498
 10
94.84646486794874
 20
26.53505114249498
 42
-0.4142135623730951
 10
91.84646486794873
 20
29.53505114249522
 10
91.84646486794873
 20
35.03505114249521
 10
91.84646486794873
 20
41.03505114249485
 42
-0.4142135623730951
 10
93.84646486794862
 20
43.03505114249484
 10
102.8464648679479
 20
43.03505114249484
 10
102.8464648679479
 20
43.03505114249484
 10
108.8464648679484
 20
43.03505114249484
 42
0.4142135623730951
 10
109.8464648679485
 20
44.0350511424952
 10
109.8464648679481
 20
45.48441301618963
  0
HATCH
  5
521D
330
1F
100
AcDbEntity
  8
Schraffur
 62
     5
100
AcDbHatch
 10
0.0
 20
0.0
 30
0.0
210
0.0
220
0.0
230
1.0
  2
STEEL
 70
     0
 71
     0
 91
        5
 92
        7
 72
     1
 73
     1
 93
        7
 10
97.84646486794835
 20
96.03522663811268
 42
0.0
 10
97.84646486794828
 20
79.03522663811303
 42
-0.4142135623731014
 10
95.84646486794872
 20
77.03522663811337
 42
0.0
 10
60.84646486808538
 20
77.03522663811337
 42
0.0
 10
57.84646486794827
 20
77.03522663811337
 42
-0.4142135623731173
 10
54.84646486794826
 20
80.03522663811315
 42
0.0
 10
54.84646486794826
 20
96.03522663811268
 42
0.0
 97
        0
 92
        7
 72
     1
 73
     1
 93
       13
 10
117.8464648679487
 20
136.0352266381128
 42
0.0
 10
117.8464648679482
 20
119.0352266381129
 42
-0.4142135623730951
 10
115.8464648679482
 20
117.0352266381129
 42
0.0
 10
98.84646486794848
 20
117.0352266381129
 42
0.4142135623731596
 10
97.8464648679485
 20
116.0352266381128
 42
0.0
 10
64.84646486794827
 20
116.0352266381128
 42
0.0
 10
64.84646486794827
 20
122.6352266381121
 42
0.0
 10
56.54646486794923
 20
122.6352266381121
 42
-0.4142135623730246
 10
55.04646486794989
 20
124.1352266381114
 42
0.0
 10
55.04646486794877
 20
131.9352266381128
 42
-0.414213562373086
 10
56.54646486794863
 20
133.4352266381127
 42
0.0
 10
64.8464648679485
 20
133.4352266381127
 42
0.0
 10
64.8464648679485
 20
136.0352266381127
 42
0.0
 97
        0
 92
       24
 93
        4
 72
     1
 10
56.22027439175781
 20
131.2018933047792
 11
56.22027439175781
 21
124.8685599714459
 72
     1
 10
56.22027439175781
 20
124.8685599714459
 11
60.44646486794825
 21
124.8685599714459
 72
     1
 10
60.44646486794829
 20
124.8685599714459
 11
60.44646486794829
 21
131.2018933047792
 72
     1
 10
60.44646486794829
 20
131.2018933047792
 11
56.22027439175788
 21
131.2018933047792
 97
        0
 92
       24
 93
        4
 72
     1
 10
56.22027439175827
 20
92.06855997144657
 11
56.22027439175827
 21
85.40189330477982
 72
     1
 10
56.22027439175827
 20
85.40189330477982
 11
60.44646486794881
 21
85.40189330477982
 72
     1
 10
60.44646486794885
 20
85.40189330477982
 11
60.44646486794885
 21
92.06855997144657
 72
     1
 10
60.44646486794885
 20
92.06855997144657
 11
56.2202743917583
 21
92.06855997144657
 97
        0
 92
        9
 93
        4
 72
     1
 10
76.5443330194314
 20
123.010312120566
 11
91.34433301943134
 21
123.010312120566
 72
     1
 10
91.34433301943134
 20
123.010312120566
 11
91.34433301943134
 21
114.9150740253279
 72
     1
 10
91.34433301943134
 20
114.9150740253279
 11
76.5443330194314
 21
114.9150740253279
 72
     1
 10
76.5443330194314
 20
114.9150740253279
 11
76.5443330194314
 21
123.010312120566
 97
        0
 75
     0
 76
     1
 52
90.0
 41
2.0
 77
     0
 78
     2
 53
135.0
 43
-835.1265017968744
 44
-98.87364645930201
 45
-4.490128060534575
 46
-4.490128060534575
 79
     0
 53
135.0
 43
-838.3015017968743
 44
-98.87364645930201
 45
-4.490128060534575
 46
-4.490128060534575
 79
     0
 47
0.1440190136031296
 98
        5
 10
-835.1265017968744
 20
-98.87364645930201
 10
337.3102552954483
 20
220.5813571352519
 10
337.3102552954483
 20
220.5813571352519
 10
79.27647318658933
 20
86.78671268536787
 10
92.48085443606226
 20
127.7129323056555
1001
ACAD
1010
0.0
1020
0.0
1030
0.0
  0
HATCH
  5
521E
330
1F
100
AcDbEntity
  8
Schraffur
 62
     5
100
AcDbHatch
 10
0.0
 20
0.0
 30
0.0
210
0.0
220
0.0
230
1.0
  2
STEEL
 70
     0
 71
     0
 91
        4
 92
        7
 72
     1
 73
     1
 93
        8
 10
54.84646486794826
 20
96.03522663811268
 42
0.0
 10
54.84646486794826
 20
98.93522663811301
 42
-0.4142135623730951
 10
56.34646486794828
 20
100.4352266381131
 42
0.0
 10
64.84646486794805
 20
100.4352266381131
 42
0.0
 10
64.8464648679485
 20
101.4352266381132
 42
0.0
 10
64.84646486794827
 20
116.0352266381128
 42
0.0
 10
97.8464648679485
 20
116.035226638113
 42
0.0
 10
97.84646486794835
 20
96.03522663811268
 42
0.0
 97
        0
 92
       24
 93
        4
 72
     1
 10
64.91578011622528
 20
152.2102266381129
 11
64.91578011622528
 21
145.9602266381128
 72
     1
 10
64.91578011622528
 20
145.9602266381128
 11
69.14197059241576
 21
145.9602266381128
 72
     1
 10
69.14197059241576
 20
145.9602266381128
 11
69.14197059241576
 21
152.2102266381129
 72
     1
 10
69.14197059241576
 20
152.2102266381129
 11
64.91578011622528
 21
152.2102266381129
 97
        0
 92
        9
 93
        4
 72
     1
 10
76.5443330194314
 20
123.010312120566
 11
91.34433301943134
 21
123.010312120566
 72
     1
 10
91.34433301943134
 20
123.010312120566
 11
91.34433301943134
 21
114.9150740253279
 72
     1
 10
91.34433301943134
 20
114.9150740253279
 11
76.5443330194314
 21
114.9150740253279
 72
     1
 10
76.5443330194314
 20
114.9150740253279
 11
76.5443330194314
 21
123.010312120566
 97
        0
 92
        1
 93
       21
 72
     2
 10
55.34646486794761
 20
146.2015631441239
 40
0.4999999999993502
 50
105.0000000000036
 51
180.0000000000456
 73
     1
 72
     1
 10
54.84646486794826
 20
146.2015631441235
 11
54.84646486794826
 21
144.6352266381129
 72
     2
 10
56.34646486794821
 20
144.6352266381128
 40
1.499999999999956
 50
179.9999999999978
 51
270.0000000000027
 73
     1
 72
     1
 10
56.34646486794828
 20
143.1352266381129
 11
64.84646486794827
 21
143.1352266381129
 72
     1
 10
64.84646486794827
 20
143.1352266381129
 11
64.8464648679485
 21
136.0352266381127
 72
     1
 10
64.8464648679485
 20
136.0352266381127
 11
117.8464648679487
 21
136.0352266381128
 72
     1
 10
117.8464648679487
 20
136.0352266381128
 11
117.8464648679487
 21
138.0352266381128
 72
     2
 10
118.8464648679487
 20
138.0352266381128
 40
0.9999999999999998
 50
180.0
 51
270.0
 73
     0
 72
     1
 10
118.8464648679487
 20
139.0352266381128
 11
130.8464648679484
 21
139.0352266381128
 72
     2
 10
130.8464648679484
 20
141.0352266381128
 40
2.000000000000023
 50
269.9999999999992
 51
379.9999999999893
 73
     1
 72
     1
 10
132.7258501095204
 20
141.7192669247638
 11
128.5976923809023
 21
153.0612870680896
 72
     2
 10
125.7786145185443
 20
152.0352266381126
 40
3.000000000000156
 50
19.99999999999774
 51
90.00000000000161
 73
     1
 72
     1
 10
125.7786145185443
 20
155.0352266381128
 11
57.84646486794827
 21
155.0352266381128
 72
     2
 10
57.84646486794827
 20
152.0352266381128
 40
3.000000000000008
 50
89.99999999999984
 51
180.0
 73
     1
 72
     1
 10
54.84646486794826
 20
152.0352266381128
 11
54.84646486794826
 21
151.9688901321016
 72
     2
 10
55.34646486794715
 20
151.9688901321012
 40
0.4999999999988924
 50
179.9999999999544
 51
254.9999999998296
 73
     1
 72
     1
 10
55.21705534539474
 20
151.4859272189582
 11
58.47587439049745
 21
150.6127292875438
 72
     2
 10
58.34646486794595
 20
150.1297663743984
 40
0.5000000000008973
 50
284.9999999999992
 51
360.000000000026
 73
     0
 72
     1
 10
58.84646486794686
 20
150.1297663743981
 11
58.84646486794686
 21
148.0406869018267
 72
     2
 10
58.34646486794678
 20
148.0406869018267
 40
0.5000000000000714
 50
360.0
 51
435.0000000000483
 73
     0
 72
     1
 10
58.47587439049767
 20
147.557723988682
 11
55.21705534539648
 21
146.6845260572678
 97
        0
 75
     0
 76
     1
 52
0.0
 41
2.0
 77
     0
 78
     2
 53
45.0
 43
0.0
 44
0.0
 45
-4.490128060534575
 46
4.490128060534575
 79
     0
 53
45.0
 43
0.0
 44
3.174999999999998
 45
-4.490128060534575
 46
4.490128060534575
 79
     0
 47
0.1427654771233635
 98
        6
 10
0.0
 20
0.0
 10
7.296568183757131
 20
0.0
 10
-835.1265017968744
 20
-98.87364645930201
 10
337.3102552954483
 20
220.5813571352519
 10
79.27647318658933
 20
147.7497291960726
 10
75.44294265143799
 20
103.4129927684822
1001
ACAD
1010
0.0
1020
0.0
1030
0.0
  0
LINE
  5
521F
330
1F
100
AcDbEntity
  8
Schlitz-Zapfen
100
AcDbLine
 10
64.64646486794845
 20
143.0352266381128
 30
0.0
 11
132.2468799443678
 21
143.0352266381128
 31
0.0
  0
LINE
  5
5220
330
1F
100
AcDbEntity
  8
Schlitz-Zapfen
100
AcDbLine
 10
64.64646486794823
 20
133.5352266381128
 30
0.0
 11
117.8464648679484
 21
133.5352266381128
 31
0.0
  0
LINE
  5
5221
330
1F
100
AcDbEntity
  8
Schlitz-Zapfen
100
AcDbLine
 10
64.64646486794798
 20
122.5352266381128
 30
0.0
 11
117.8464648679483
 21
122.5352266381128
 31
0.0
  0
LINE
  5
5222
330
1F
100
AcDbEntity
  8
Schlitz-Zapfen
100
AcDbLine
 10
64.64646486794845
 20
100.5352266381134
 30
0.0
 11
97.8464648679485
 21
100.5352266381134
 31
0.0
  0
MTEXT
  5
5223
330
1F
100
AcDbEntity
  8
Bemaßung
100
AcDbMText
 10
90.34433301943129
 20
122.010312120566
 30
0.0
 40
4.0
 41
15.20500240567617
 71
     3
 72
     5
  1
78/78
  7
RomanS
 73
     1
 44
1.0
1001
ACAD
1000
MTEXTBEGIN
1070
    73
1070
     1
1070
    44
1040
1.0
1070
    74
1070
     0
1000
MTEXTEND
  0
LINE
  5
5224
330
1F
100
AcDbEntity
  8
Schraffur
 62
     5
100
AcDbLine
 10
117.8464648679487
 20
136.0352266381128
 30
0.0
 11
64.8464648679485
 21
136.0352266381128
 31
0.0
  0
LINE
  5
5225
330
1F
100
AcDbEntity
  8
Schraffur
 62
     5
100
AcDbLine
 10
97.8464648679485
 20
116.0352266381128
 30
0.0
 11
64.84646486794827
 21
116.0352266381128
 31
0.0
  0
LINE
  5
5226
330
1F
100
AcDbEntity
  8
Schraffur
 62
     5
100
AcDbLine
 10
97.84646486794835
 20
96.03522663811268
 30
0.0
 11
54.84646486794826
 21
96.03522663811268
 31
0.0
  0
LWPOLYLINE
  5
5227
330
1F
100
AcDbEntity
  8
Blendrahmen
100
AcDbPolyline
 90
       42
 70
     1
 43
0.0
 10
57.84646486794827
 20
155.0352266381128
 10
125.7786145185443
 20
155.0352266381128
 42
-0.3152987888789794
 10
128.5976923809023
 20
153.0612870680899
 10
132.7258501095204
 20
141.7192669247638
 42
-0.5205670505517467
 10
130.8464648679482
 20
139.0352266381128
 10
118.8464648679487
 20
139.0352266381128
 42
0.4142135623730951
 10
117.8464648679487
 20
138.0352266381128
 10
117.8464648679482
 20
119.0352266381129
 42
-0.4142135623730951
 10
115.8464648679482
 20
117.0352266381129
 10
98.84646486794848
 20
117.0352266381129
 42
0.4142135623730951
 10
97.8464648679485
 20
116.035226638113
 10
97.84646486794828
 20
79.03522663811303
 42
-0.4142135623730951
 10
95.84646486794872
 20
77.03522663811337
 10
60.84646486808538
 20
77.03522663811337
 10
57.84646486794827
 20
77.03522663811337
 42
-0.4142135623730951
 10
54.84646486794826
 20
80.03522663811303
 10
54.84646486794826
 20
98.93522663811301
 42
-0.4142135623730951
 10
56.34646486794828
 20
100.4352266381131
 10
64.34646486794827
 20
100.4352266381131
 42
0.4142135623730992
 10
64.84646486794827
 20
100.935226638113
 10
64.8464648679485
 20
101.4352266381132
 10
64.84646486794827
 20
122.1352266381129
 42
0.4142135623730911
 10
64.34646486794827
 20
122.6352266381121
 10
56.54646486794923
 20
122.6352266381121
 42
-0.4142135623730911
 10
55.04646486794989
 20
124.1352266381118
 10
55.04646486794877
 20
131.9352266381128
 42
-0.4142135623730992
 10
56.54646486794877
 20
133.4352266381127
 10
64.34646486794827
 20
133.4352266381127
 42
0.4142135623730992
 10
64.8464648679485
 20
133.9352266381128
 10
64.84646486794827
 20
142.6352266381129
 42
0.4142135623730951
 10
64.34646486794827
 20
143.1352266381129
 10
56.34646486794686
 20
143.1352266381121
 42
-0.4142135623730951
 10
54.84646486794686
 20
144.6352266381121
 10
54.84646486794686
 20
146.2015631441231
 42
-0.3394542588633798
 10
55.21705534539472
 20
146.6845260572673
 10
58.47587439049767
 20
147.557723988682
 42
0.3394542588633914
 10
58.84646486794686
 20
148.0406869018263
 10
58.84646486794686
 20
150.1297663743981
 42
0.339454258863376
 10
58.47587439049767
 20
150.6127292875437
 10
55.21705534539474
 20
151.4859272189582
 42
-0.3394542588633913
 10
54.84646486794686
 20
151.9688901321017
 10
54.84646486794817
 20
152.0352266381127
 42
-0.4142135623731062
  0
DIMENSION
  5
522B
330
1F
100
AcDbEntity
  8
Bemaßung
100
AcDbDimension
  2
*D10
 10
139.8246250493962
 20
155.0352266381127
 30
0.0
 11
137.9496250493962
 21
147.0352266381127
 31
0.0
 70
    32
 71
     5
 42
15.99999999999997
  3
IDEAL Holz
100
AcDbAlignedDimension
 13
139.8246250493962
 23
139.0352266381127
 33
0.0
 14
139.8246250493962
 24
155.0352266381127
 34
0.0
 50
270.0
100
AcDbRotatedDimension
  0
DIMENSION
  5
522C
330
1F
100
AcDbEntity
  8
Bemaßung
100
AcDbDimension
  2
*D11
 10
125.7786145185443
 20
159.0910656118288
 30
0.0
 11
129.3125396932463
 21
161.204160849924
 31
0.0
 70
    32
 71
     5
 42
7.067850349404096
  3
IDEAL Holz
100
AcDbAlignedDimension
 13
132.8464648679483
 23
159.0910656118288
 33
0.0
 14
125.7786145185443
 24
159.0910656118288
 34
0.0
 50
180.0
100
AcDbRotatedDimension
  0
DIMENSION
  5
522D
330
1F
100
AcDbEntity
  8
Bemaßung
100
AcDbDimension
  2
*D12
 10
60.44646486794885
 20
77.03522663811337
 30
0.0
 11
58.33336962985359
 21
88.73522663811325
 31
0.0
 70
    32
 71
     5
 42
23.39999999999972
  3
IDEAL Holz
100
AcDbAlignedDimension
 13
60.44646486794885
 23
100.4352266381131
 33
0.0
 14
60.34646486794827
 24
77.03522663811337
 34
0.0
 50
270.0
100
AcDbRotatedDimension
  0
DIMENSION
  5
522E
330
1F
100
AcDbEntity
  8
Bemaßung
100
AcDbDimension
  2
*D13
 10
60.44646486794885
 20
122.6352266381125
 30
0.0
 11
58.33336962985359
 21
111.5352266381128
 31
0.0
 70
    32
 71
     5
 42
22.19999999999942
  3
IDEAL Holz
100
AcDbAlignedDimension
 13
60.44646486794864
 23
100.4352266381131
 33
0.0
 14
60.44646486794864
 24
122.6352266381125
 34
0.0
 50
270.0
100
AcDbRotatedDimension
  0
DIMENSION
  5
522F
330
1F
100
AcDbEntity
  8
Bemaßung
100
AcDbDimension
  2
*D14
 10
60.44646486794829
 20
133.4352266381128
 30
0.0
 11
58.33336962985303
 21
128.0352266381126
 31
0.0
 70
    32
 71
     5
 42
10.80000000000026
  3
IDEAL Holz
100
AcDbAlignedDimension
 13
60.44646486794864
 23
122.6352266381125
 33
0.0
 14
60.44646486794829
 24
133.4352266381128
 34
0.0
 50
270.0
100
AcDbRotatedDimension
  0
DIMENSION
  5
5230
330
1F
100
AcDbEntity
  8
Bemaßung
100
AcDbDimension
  2
*D15
 10
69.14197059241576
 20
155.0352266381128
 30
0.0
 11
67.02887535432051
 21
149.0852266381128
 31
0.0
 70
    32
 71
     5
 42
11.89999999999992
  3
IDEAL Holz
100
AcDbAlignedDimension
 13
69.14197059241576
 23
143.1352266381129
 33
0.0
 14
69.14197059241576
 24
155.0352266381128
 34
0.0
 50
270.0
100
AcDbRotatedDimension
  0
DIMENSION
  5
5231
330
1F
100
AcDbEntity
  8
Bemaßung
100
AcDbDimension
  2
*D16
 10
64.84646486794827
 20
138.2852266381129
 30
0.0
 11
59.84646486794826
 21
140.1602266381129
 31
0.0
 70
    32
 71
     5
 42
10.00000000000001
  3
IDEAL Holz
100
AcDbAlignedDimension
 13
54.84646486794826
 23
140.5227266381129
 33
0.0
 14
64.84646486794827
 24
138.2852266381129
 34
0.0
 50
180.0
100
AcDbRotatedDimension
  0
DIMENSION
  5
5465
102
{ACAD_XDICTIONARY
360
5472
102
}
102
{ACAD_REACTORS
330
547C
330
55A5
102
}
330
1F
100
AcDbEntity
  8
Bemaßung
100
AcDbDimension
  2
*D17
 10
117.1442256009953
 20
60.53522663811333
 30
0.0
 11
115.0311303629
 21
68.78522663811338
 31
0.0
 70
    32
 71
     5
 42
16.50000000000004
  3
IDEAL Holz
100
AcDbAlignedDimension
 13
117.1442256009953
 23
77.03522663811337
 33
0.0
 14
117.1442256009953
 24
60.53522663811333
 34
0.0
 50
90.0
100
AcDbRotatedDimension
  0
LINE
  5
548A
102
{ACAD_REACTORS
330
55A5
102
}
330
1F
100
AcDbEntity
  8
Schraffur
 62
    84
100
AcDbLine
 10
192.8464648679487
 20
119.5352266381129
 30
0.0
 11
121.8464648679487
 21
119.5352266381129
 31
0.0
  0
LINE
  5
548B
102
{ACAD_REACTORS
330
55A5
102
}
330
1F
100
AcDbEntity
  8
Schraffur
 62
    84
100
AcDbLine
 10
178.8464648679487
 20
99.53522663811277
 30
0.0
 11
109.8464648679482
 21
99.53522663811279
 31
0.0
  0
LINE
  5
548C
102
{ACAD_REACTORS
330
55A5
102
}
330
1F
100
AcDbEntity
  8
Schraffur
 62
    84
100
AcDbLine
 10
178.8464648679487
 20
79.53522663811276
 30
0.0
 11
109.8464648679482
 21
79.53522663811279
 31
0.0
  0
HATCH
  5
5511
330
1F
100
AcDbEntity
  8
Flügelrahmen
100
AcDbHatch
 10
0.0
 20
0.0
 30
0.0
210
0.0
220
0.0
230
1.0
  2
STEEL
 70
     0
 71
     0
 91
        5
 92
        7
 72
     1
 73
     1
 93
       10
 10
123.8464648679487
 20
138.5352266381129
 42
0.4142135623730951
 10
121.8464648679487
 20
136.5352266381129
 42
0.0
 10
121.8464648679487
 20
119.5352266381129
 42
0.0
 10
192.8464648679487
 20
119.5352266381129
 42
0.0
 10
192.8464648679487
 20
119.6267949284935
 42
-0.3394542588633775
 10
195.0700077326409
 20
122.5245724073607
 42
0.0
 10
195.364102958154
 20
122.6033749855347
 42
0.4400105308918385
 10
196.7258501095202
 20
125.2192669247643
 42
0.0
 10
192.5976923809021
 20
136.5612870680898
 42
0.3152987888789835
 10
189.7786145185445
 20
138.5352266381129
 42
0.0
 97
        0
 92
        7
 72
     0
 73
     1
 93
       15
 10
178.8464648679487
 20
79.53522663811273
 10
178.8464648679487
 20
99.53522663811279
 10
109.8464648679482
 20
99.53522663811279
 10
109.8464648679482
 20
98.33522663811312
 10
112.3464648679487
 20
98.33522663811312
 10
112.3464648679487
 20
96.3352266381131
 10
121.8464648679482
 20
96.33522663811309
 10
121.8464648679482
 20
91.68522663811303
 10
123.1464648679484
 20
90.18522663811348
 10
121.8464648679482
 20
88.68522663811296
 10
121.8464648679482
 20
84.03522663811337
 10
112.3464648679487
 20
84.03522663811337
 10
112.3464648679487
 20
82.03522663811339
 10
109.8464648679482
 20
82.03522663811339
 10
109.8464648679482
 20
79.53522663811281
 97
        0
 92
       24
 93
        4
 72
     1
 10
186.5498199307229
 20
137.112146838517
 11
190.6331532640563
 21
137.112146838517
 72
     1
 10
190.6331532640563
 20
137.112146838517
 11
190.6331532640563
 21
133.362146838517
 72
     1
 10
190.6331532640563
 20
133.362146838517
 11
186.5498199307229
 21
133.362146838517
 72
     1
 10
186.5498199307229
 20
133.362146838517
 11
186.5498199307229
 21
137.112146838517
 97
        0
 92
       24
 93
        4
 72
     1
 10
140.4074465576497
 20
96.41193719920568
 11
157.4741132243164
 21
96.41193719920568
 72
     1
 10
157.4741132243164
 20
96.41193719920568
 11
157.4741132243164
 21
88.3166991039676
 72
     1
 10
157.4741132243164
 20
88.3166991039676
 11
140.4074465576497
 21
88.3166991039676
 72
     1
 10
140.4074465576497
 20
88.3166991039676
 11
140.4074465576497
 21
96.41193719920568
 97
        0
 92
       24
 93
        4
 72
     1
 10
175.0964648679486
 20
126.4935599714462
 11
175.0964648679486
 21
130.5768933047796
 72
     1
 10
175.0964648679486
 20
130.5768933047796
 11
178.8464648679486
 21
130.5768933047796
 72
     1
 10
178.8464648679486
 20
130.5768933047796
 11
178.8464648679486
 21
126.4935599714462
 72
     1
 10
178.8464648679486
 20
126.4935599714462
 11
175.0964648679486
 21
126.4935599714462
 97
        0
 75
     0
 76
     1
 52
90.0
 41
2.0
 77
     0
 78
     2
 53
135.0
 43
0.0
 44
0.0
 45
-4.490128060534575
 46
-4.490128060534575
 79
     0
 53
135.0
 43
-3.174999999999998
 44
0.0000000000000002
 45
-4.490128060534575
 46
-4.490128060534575
 79
     0
 47
0.1038038064038583
 98
        3
 10
0.0
 20
0.0
 10
164.8682845697233
 20
131.52439334257
 10
132.0012466451565
 20
86.23138891689086
1001
ACAD
1010
0.0
1020
0.0
1030
0.0
  0
HATCH
  5
55A5
330
1F
100
AcDbEntity
  8
Flügelrahmen
100
AcDbHatch
 10
0.0
 20
0.0
 30
0.0
210
0.0
220
0.0
230
1.0
  2
STEEL
 70
     0
 71
     1
 91
        5
 92
        7
 72
     1
 73
     1
 93
       18
 10
178.8464648679487
 20
99.53522663811277
 42
0.0
 10
178.8464648679487
 20
106.0352266381129
 42
0.0
 10
176.3464648679487
 20
106.0352266381129
 42
0.0
 10
176.3464648679487
 20
114.0352266381129
 42
0.0
 10
178.8464648679487
 20
114.0352266381129
 42
0.0
 10
178.8464648679487
 20
118.5352266381129
 42
0.0
 10
192.3464648679487
 20
118.5352266381129
 42
0.0
 10
192.8464648679487
 20
119.0352266381129
 42
0.0
 10
192.8464648679487
 20
119.5352266381129
 42
0.0
 10
121.8464648679487
 20
119.5352266381129
 42
0.0
 10
121.8464648679487
 20
117.1352266381133
 42
0.0
 10
130.3464648679487
 20
117.1352266381133
 42
0.0
 10
130.3464648679487
 20
112.335226638113
 42
0.0
 10
121.8464648679487
 20
112.335226638113
 42
0.0
 10
121.8464648679487
 20
112.0352266381134
 42
0.0
 10
111.8464648679482
 20
112.0352266381134
 42
0.4142135623730951
 10
109.8464648679482
 20
110.0352266381134
 42
0.0
 10
109.8464648679482
 20
99.53522663811279
 42
0.0
 97
        3
330
403F
330
548A
330
548B
 92
        7
 72
     1
 73
     1
 93
       22
 10
172.8464648679492
 20
60.53522663811293
 42
0.0
 10
176.8464648679487
 20
60.53522663811293
 42
0.4142135623730951
 10
178.8464648679487
 20
62.53522663811292
 42
0.0
 10
178.8464648679487
 20
66.16008437653602
 42
0.0
 10
178.8464648679487
 20
68.53522663811293
 42
0.0
 10
174.8464648679487
 20
68.5352266381134
 42
0.0
 10
174.8464648679487
 20
72.53522663811293
 42
0.0
 10
178.8464648679487
 20
72.53522663811337
 42
0.0
 10
178.8464648679487
 20
79.53522663811276
 42
0.0
 10
109.8464648679482
 20
79.53522663811279
 42
0.0
 10
109.8464648679482
 20
78.0352266381134
 42
-0.4142135623730951
 10
108.8464648679482
 20
77.03522663811337
 42
0.0
 10
102.8464648679478
 20
77.03522663811337
 42
0.4142135623730222
 10
101.8464648679484
 20
76.03522663811424
 42
0.0
 10
101.8464648679479
 20
74.03522663811348
 42
0.0
 10
107.3464648679483
 20
74.03522663811348
 42
0.0
 10
107.3464648679483
 20
71.0352266381136
 42
0.0
 10
93.84646486794856
 20
71.0352266381136
 42
0.4142135623730951
 10
91.84646486794877
 20
69.03522663811378
 42
0.0
 10
91.84646486794877
 20
63.53522663811336
 42
0.4142135623730943
 10
94.84646486794877
 20
60.53522663811335
 42
0.0
 10
114.5416090467933
 20
60.53522663811335
 42
0.0
 97
        2
330
403F
330
548C
 92
       24
 93
        4
 72
     1
 10
117.1442256009952
 20
65.61855997144672
 11
117.1442256009952
 21
71.95189330478005
 72
     1
 10
117.1442256009952
 20
71.95189330478005
 11
112.9180351248048
 21
71.95189330478005
 72
     1
 10
112.9180351248048
 20
71.95189330478005
 11
112.9180351248048
 21
65.61855997144672
 72
     1
 10
112.9180351248048
 20
65.61855997144672
 11
117.1442256009952
 21
65.61855997144672
 97
        1
330
5465
 92
       24
 93
        4
 72
     1
 10
99.74487207463518
 20
65.1190516548683
 11
102.3581053624933
 21
65.1190516548683
 72
     1
 10
102.3581053624933
 20
65.1190516548683
 11
102.3581053624933
 21
68.21011577492287
 72
     1
 10
102.3581053624933
 20
68.21011577492287
 11
99.74487207463518
 21
68.21011577492287
 72
     1
 10
99.74487207463518
 20
68.21011577492287
 11
99.74487207463518
 21
65.1190516548683
 97
        1
330
4916
 92
       24
 93
        4
 72
     1
 10
93.77778738545828
 20
62.01925610054028
 11
100.1111207187916
 21
62.01925610054028
 72
     1
 10
100.1111207187916
 20
62.01925610054028
 11
100.1111207187916
 21
71.24544657673077
 72
     1
 10
100.1111207187916
 20
71.24544657673077
 11
93.77778738545828
 21
71.24544657673077
 72
     1
 10
93.77778738545828
 20
71.24544657673077
 11
93.77778738545828
 21
62.01925610054028
 97
        1
330
48BA
 75
     0
 76
     1
 52
0.0
 41
2.0
 77
     0
 78
     2
 53
45.0
 43
7.296568183757131
 44
0.0
 45
-4.490128060534575
 46
4.490128060534575
 79
     0
 53
45.0
 43
7.296568183757131
 44
3.174999999999998
 45
-4.490128060534575
 46
4.490128060534575
 79
     0
 47
0.5661623579650862
 98
        2
 10
138.234648934192
 20
107.7455549589576
 10
143.3347283723827
 20
69.81268325320707
1001
ACAD
1010
0.0
1020
0.0
1030
0.0
  0
LINE
  5
55AB
330
1F
100
AcDbEntity
  8
Schlitz-Zapfen
100
AcDbLine
 10
196.2468799443679
 20
126.5352266381126
 30
0.0
 11
121.8464648679487
 21
126.5352266381126
 31
0.0
  0
LINE
  5
55AC
330
1F
100
AcDbEntity
  8
Schlitz-Zapfen
100
AcDbLine
 10
178.8464648679487
 20
117.0352266381126
 30
0.0
 11
130.3464648679487
 21
117.0352266381126
 31
0.0
  0
LINE
  5
55AD
330
1F
100
AcDbEntity
  8
Schlitz-Zapfen
100
AcDbLine
 10
178.8464648679487
 20
106.0352266381126
 30
0.0
 11
109.8464648679482
 21
106.0352266381126
 31
0.0
  0
LINE
  5
55AE
330
1F
100
AcDbEntity
  8
Schlitz-Zapfen
100
AcDbLine
 10
178.8464648679487
 20
84.03522663811314
 30
0.0
 11
112.3464648679487
 21
84.03522663811314
 31
0.0
  0
DIMENSION
  5
57D0
102
{ACAD_XDICTIONARY
360
57DD
102
}
102
{ACAD_REACTORS
330
57E7
102
}
330
1F
100
AcDbEntity
  8
Bemaßung
100
AcDbDimension
  2
*D18
 10
178.8464648679487
 20
138.5352266381129
 30
0.0
 11
176.9714648679487
 21
128.5352266381129
 31
0.0
 70
    32
 71
     5
 42
19.99999999999998
  3
IDEAL Holz
100
AcDbAlignedDimension
 13
178.8464648679487
 23
118.5352266381129
 33
0.0
 14
178.8464648679487
 24
138.5352266381129
 34
0.0
 50
90.0
100
AcDbRotatedDimension
  0
DIMENSION
  5
5836
330
1F
100
AcDbEntity
  8
Bemaßung
100
AcDbDimension
  2
*D19
 10
117.8464648679482
 20
89.40628089478416
 30
0.0
 11
113.8464648679482
 21
91.28128089478416
 31
0.0
 70
    32
 71
     5
 42
8.0
  3
IDEAL Holz
100
AcDbAlignedDimension
 13
109.8464648679482
 23
89.40628089478416
 33
0.0
 14
117.8464648679482
 24
89.40628089478416
 34
0.0
100
AcDbRotatedDimension
  0
DIMENSION
  5
5843
330
1F
100
AcDbEntity
  8
Bemaßung
100
AcDbDimension
  2
*D20
 10
178.8464648679487
 20
153.9886802741681
 30
0.0
 11
187.8464648679486
 21
155.8636802741681
 31
0.0
 70
    32
 71
     5
 42
17.9999999999998
  3
IDEAL Holz
100
AcDbAlignedDimension
 13
196.8464648679485
 23
153.9886802741681
 33
0.0
 14
178.8464648679487
 24
153.9886802741681
 34
0.0
100
AcDbRotatedDimension
  0
MTEXT
  5
58F4
102
{ACAD_XDICTIONARY
360
5C57
102
}
330
1F
100
AcDbEntity
  8
0
100
AcDbMText
 10
493.4615334242931
 20
171.1425897672395
 30
0.0
 40
25.0
 41
342.7948968502213
 71
     2
 72
     5
  1
{\fArial|b1|i0|c0|p34;F\U+00FCr Profilvarianten s. IV78_01. Fenster_BK-T\U+00FCr.dxf}
  7
RomanS
 73
     1
 44
1.0
1001
ACAD
1000
MTEXTBEGIN
1070
    73
1070
     1
1070
    44
1040
1.0
1070
    74
1070
     0
1000
MTEXTEND
  0
LWPOLYLINE
  5
5925
330
1F
100
AcDbEntity
  8
Glasleiste
100
AcDbPolyline
 90
       23
 70
     1
 43
0.0
 10
178.8464648679488
 20
36.68657065969289
 10
179.5878989608505
 20
38.72364408795352
 10
184.859958492318
 20
38.72364408795329
 42
0.3178372451957874
 10
185.8027675339
 20
39.39031075461996
 42
-0.3178372451957952
 10
186.2741720546911
 20
39.72364408795329
 10
192.3464648679489
 20
39.72364408795318
 10
192.8464648679489
 20
39.22364408795317
 10
192.8464648679489
 20
38.63207579757261
 42
0.3394542588633623
 10
195.0700077326412
 20
35.73429831870543
 10
195.3641029581539
 20
35.65549574053147
 42
-0.4400105308918321
 10
196.7258501095207
 20
33.03960380130194
 10
194.4018225846743
 20
26.65439065459565
 42
-0.2216946626429391
 10
192.6088051522936
 20
24.86137322221506
 10
191.7330304869504
 20
24.54261731210555
 42
0.2216946626429391
 10
190.53768553203
 20
23.34727235718517
 10
189.2668074466234
 20
19.85556351465097
 42
-0.3152987888789831
 10
185.5080369634798
 20
17.22364408795361
 10
178.8464648679487
 20
17.22364408795361
 42
-0.4142135623730951
 10
176.8464648679487
 20
19.22364408795362
 10
176.8464648679488
 20
20.65674823378189
 42
-0.3639702342662163
 10
177.2596407791154
 20
21.14915211028798
 10
178.4332889567822
 20
21.35609794986975
 42
0.3639702342662049
 10
178.8464648679487
 20
21.84850182637606
1001
AcDbBlockRepETag
1070
     1
1071
       17
1005
5925
  0
HATCH
  5
5927
330
1F
100
AcDbEntity
  8
Schraffur
 62
    84
100
AcDbHatch
 10
0.0
 20
0.0
 30
0.0
210
0.0
220
0.0
230
1.0
  2
STEEL
 70
     0
 71
     0
 91
        1
 92
        7
 72
     1
 73
     1
 93
       24
 10
178.8464648679487
 20
21.84850182637593
 42
-0.3639702342665228
 10
178.4332889567821
 20
21.35609794986999
 42
0.0
 10
177.2596407791153
 20
21.14915211028813
 42
0.3639702342662163
 10
176.8464648679487
 20
20.65674823378174
 42
0.0
 10
176.8464648679487
 20
19.22364408795352
 42
0.4142135623730951
 10
178.8464648679487
 20
17.22364408795352
 42
0.0
 10
185.5080369634797
 20
17.22364408795352
 42
0.3152987888789831
 10
189.2668074466234
 20
19.85556351465073
 42
0.0
 10
190.5376855320299
 20
23.34727235718504
 42
-0.2216946626429392
 10
191.7330304869504
 20
24.54261731210523
 42
0.0
 10
192.6088051522932
 20
24.8613732222151
 42
0.2216946626429391
 10
194.4018225846743
 20
26.65439065459555
 42
0.0
 10
196.7258501095248
 20
33.03960380131015
 42
0.0
 10
196.7407377641924
 20
33.0819820316051
 42
0.4333251351666421
 10
195.3641029581537
 20
35.65549574053149
 42
0.0
 10
195.0700077326409
 20
35.73429831870556
 42
-0.3394542588634565
 10
192.8464648679488
 20
38.63207579757261
 42
0.0
 10
192.8464648679488
 20
39.22364408795317
 42
0.0
 10
192.3464648679487
 20
39.72364408795318
 42
0.0
 10
186.274172054691
 20
39.72364408795318
 42
0.3178372451958395
 10
185.8027675339
 20
39.39031075461958
 42
-0.3178372451957652
 10
184.859958492318
 20
38.72364408795352
 42
0.0
 10
179.5878989608505
 20
38.72364408795352
 42
0.0
 10
178.8464648679487
 20
36.68657065969285
 42
0.0
 97
        0
 75
     0
 76
     1
 52
-90.00000000000001
 41
1.0
 77
     0
 78
     2
 53
315.0
 43
-95.49110657342408
 44
907.0102226971842
 45
2.245064030267286
 46
2.245064030267287
 79
     0
 53
315.0
 43
-93.90360657342391
 44
907.0102226971842
 45
2.245064030267286
 46
2.245064030267287
 79
     0
 47
0.1061632553570742
 98
        1
 10
181.3853455471896
 20
26.56979867080464
1001
ACAD
1010
0.0
1020
0.0
1030
0.0
1001
AcDbBlockRepETag
1070
     1
1071
       15
1005
5927
  0
MTEXT
  5
5928
330
1F
100
AcDbEntity
  8
0
100
AcDbMText
 10
213.3705644962936
 20
41.0534713809393
 30
0.0
 40
2.5
 41
32.45222712164236
 71
     5
 72
     1
  1
Glasleiste profiliert\Pfür Glasstärken 34mm bis 44mm
  7
RomanS
 73
     1
 44
1.0
1001
AcDbBlockRepETag
1070
     1
1071
       16
1005
5928
1001
ACAD
1000
MTEXTBEGIN
1070
    73
1070
     1
1070
    44
1040
1.0
1070
    74
1070
     0
1000
MTEXTEND
1000
ACAD_MTEXT_DEFINED_HEIGHT_BEGIN
1070
    46
1040
12.21528446946036
1000
ACAD_MTEXT_DEFINED_HEIGHT_END
  0
LINE
  5
5929
330
1F
100
AcDbEntity
  8
Silikon
 62
     1
100
AcDbLine
 10
196.7407377642306
 20
33.08198203171798
 30
0.0
 11
198.2639289637745
 21
37.41779911502489
 31
0.0
1001
AcDbBlockRepETag
1070
     1
1071
        0
1005
5929
  0
HATCH
  5
592A
330
1F
100
AcDbEntity
  8
Silikon
 62
     1
100
AcDbHatch
 10
0.0
 20
0.0
 30
0.0
210
0.0
220
0.0
230
1.0
  2
ANGLE
 70
     0
 71
     1
 91
        1
 92
        1
 93
        7
 72
     1
 10
198.2639289637745
 20
37.41779911502489
 11
196.7258501095205
 21
33.03960380130219
 72
     2
 10
194.8464648679486
 20
33.72364408795339
 40
1.999999999999971
 50
340.000000000004
 51
434.9999999999993
 73
     1
 72
     1
 10
195.3641029581537
 20
35.65549574053149
 11
195.0700077326409
 21
35.73429831870556
 72
     2
 10
195.846464867948
 20
38.63207579757189
 40
2.999999999999038
 50
104.999999999996
 51
179.9999999999944
 73
     0
 72
     1
 10
192.846464867949
 20
38.6320757975716
 11
192.846464867949
 21
40.2236440879535
 72
     1
 10
192.846464867949
 20
40.2236440879535
 11
195.5134461202583
 21
40.2236440879535
 72
     2
 10
184.8300366909073
 20
26.99999999999991
 40
17.00000000000047
 50
308.9348163439032
 51
322.2069130505862
 73
     0
 97
        1
330
592B
 75
     0
 76
     1
 52
-90.00000000000001
 41
0.1
 77
     0
 78
     2
 53
90.0
 43
534.4402132844698
 44
454.6176038817667
 45
-0.6985000000000002
 46
-0.0000000000000002
 79
     2
 49
0.508
 49
-0.1905
 53
180.0
 43
534.4402132844698
 44
454.6176038817667
 45
0.0000000000000002
 46
-0.6985000000000002
 79
     2
 49
0.508
 49
-0.1905
 98
        1
 10
534.4402132844698
 20
454.6176038817667
1001
ACAD
1010
0.0
1020
0.0
1030
0.0
1001
AcDbBlockRepETag
1070
     1
1071
        1
1005
592A
  0
LWPOLYLINE
  5
592B
102
{ACAD_REACTORS
330
592A
102
}
330
1F
100
AcDbEntity
  8
Silikon
 62
     1
100
AcDbPolyline
 90
        7
 70
     1
 43
0.0
 10
198.2639289637745
 20
37.41779911502489
 10
196.7258501095205
 20
33.03960380130219
 42
0.4400105308918084
 10
195.3641029581537
 20
35.65549574053149
 10
195.0700077326409
 20
35.73429831870556
 42
-0.3394542588633679
 10
192.846464867949
 20
38.6320757975716
 10
192.846464867949
 20
40.2236440879535
 10
195.5134461202583
 20
40.2236440879535
 42
-0.0579752700428324
1001
AcDbBlockRepETag
1070
     1
1071
        2
1005
592B
  0
HATCH
  5
592C
330
1F
100
AcDbEntity
  8
Schraffur
 62
    84
100
AcDbHatch
 10
0.0
 20
0.0
 30
0.0
210
0.0
220
0.0
230
1.0
  2
STEEL
 70
     0
 71
     0
 91
        1
 92
        7
 72
     1
 73
     1
 93
       14
 10
172.8464648679489
 20
16.22364408795352
 42
0.0
 10
171.6820272120207
 20
16.22364408795352
 42
-0.5135471230855161
 10
178.8464648679487
 20
42.912161017269
 42
0.0
 10
178.8464648679487
 20
40.7236440879535
 42
0.0
 10
178.8464648679487
 20
28.22364408795318
 42
0.0
 10
174.8464648679485
 20
28.22364408795318
 42
0.0
 10
174.8464648679485
 20
24.22364408795352
 42
0.0
 10
178.8464648679487
 20
24.22364408795353
 42
0.0
 10
178.8464648679487
 20
21.84850182637593
 42
-0.3639702342664933
 10
178.4332889567821
 20
21.35609794986999
 42
0.0
 10
177.2596407791153
 20
21.14915211028813
 42
0.0
 10
175.6728166902818
 20
20.86935220978842
 42
0.3639702342662052
 10
174.8464648679485
 20
19.88454445677587
 42
0.0
 10
174.8464648679485
 20
18.22364408795351
 42
-0.4142135623731038
 97
        0
 75
     0
 76
     1
 52
-0.0000000000000127
 41
2.0
 77
     0
 78
     2
 53
45.00000000000006
 43
-95.49110657342408
 44
907.0102226971842
 45
-4.490128060534575
 46
4.490128060534573
 79
     0
 53
45.00000000000006
 43
-95.49110657342408
 44
910.1852226971844
 45
-4.490128060534575
 46
4.490128060534573
 79
     0
 47
0.5460268397635694
 98
        1
 10
173.790863132383
 20
31.71045687400135
1001
ACAD
1010
0.0
1020
0.0
1030
0.0
1001
AcDbBlockRepETag
1070
     1
1071
        3
1005
592C
  0
LWPOLYLINE
  5
592D
330
1F
100
AcDbEntity
  8
Flügelrahmen
100
AcDbPolyline
 90
       12
 70
     0
 43
0.0
 10
171.6820272120207
 20
16.22364408795352
 10
172.8464648679489
 20
16.22364408795352
 42
0.4142135623731038
 10
174.8464648679485
 20
18.22364408795351
 10
174.8464648679485
 20
19.88454445677587
 42
-0.3639702342662053
 10
175.6728166902818
 20
20.86935220978842
 10
178.4332889567823
 20
21.35609794986999
 42
0.3639702342662052
 10
178.8464648679484
 20
21.84850182637593
 10
178.8464648679484
 20
24.22364408795353
 10
174.8464648679485
 20
24.22364408795352
 10
174.8464648679485
 20
28.22364408795318
 10
178.8464648679487
 20
28.22364408795318
 10
178.8464648679487
 20
42.912161017269
1001
AcDbBlockRepETag
1070
     1
1071
        4
1005
592D
  0
CIRCLE
  5
5931
330
1F
100
AcDbEntity
  8
0
100
AcDbCircle
 10
184.8300366909075
 20
27.00000000000001
 30
0.0
 40
17.0
1001
AcDbBlockRepETag
1070
     1
1071
        8
1005
5931
  0
HATCH
  5
59D1
330
1F
100
AcDbEntity
  8
Silikon
100
AcDbHatch
 10
0.0
 20
0.0
 30
0.0
210
0.0
220
0.0
230
1.0
  2
ANGLE
 70
     0
 71
     1
 91
        1
 92
        1
 93
        6
 72
     2
 10
194.8464647043144
 20
65.65286254891471
 40
2.000000000000079
 50
340.0000000000051
 51
435.0000000000003
 73
     1
 72
     1
 10
195.3641027945195
 20
67.58471420149295
 11
195.0700075690072
 21
67.66351677966693
 72
     2
 10
195.8464647043144
 20
70.56129425853383
 40
2.999999999999625
 50
104.9999999999958
 51
179.9999999999943
 73
     0
 72
     1
 10
192.8464647043148
 20
70.56129425853353
 11
192.8464647043143
 21
72.03522663811266
 72
     1
 10
192.8464647043143
 20
72.03522663811266
 11
199.2496342134303
 21
72.03522663811262
 72
     1
 10
199.2496342134303
 20
72.03522663811262
 11
196.7258499458864
 21
64.96882226226353
 97
        1
330
59D2
 75
     0
 76
     1
 52
-90.00000000000001
 41
0.1
 77
     0
 78
     2
 53
90.0
 43
534.4402131208363
 44
486.5468223427278
 45
-0.6985000000000002
 46
0.0000000000000001
 79
     2
 49
0.508
 49
-0.1905
 53
180.0
 43
534.4402131208363
 44
486.5468223427278
 45
-0.0000000000000001
 46
-0.6985000000000002
 79
     2
 49
0.508
 49
-0.1905
 98
        1
 10
534.4402131208363
 20
486.5468223427278
1001
ACAD
1010
0.0
1020
0.0
1030
0.0
  0
LWPOLYLINE
  5
59D2
102
{ACAD_REACTORS
330
59D1
102
}
330
1F
100
AcDbEntity
  8
Silikon
100
AcDbPolyline
 90
        6
 70
     1
 43
0.0
 10
196.7258499458864
 20
64.96882226226353
 42
0.4400105308918068
 10
195.3641027945195
 20
67.58471420149295
 10
195.0700075690072
 20
67.66351677966693
 42
-0.3394542588633679
 10
192.8464647043148
 20
70.56129425853353
 10
192.8464647043143
 20
72.03522663811266
 10
199.2496342134303
 20
72.03522663811262
  0
HATCH
  5
59D3
330
1F
100
AcDbEntity
  8
Schraffur
 62
    84
100
AcDbHatch
 10
0.0
 20
0.0
 30
0.0
210
0.0
220
0.0
230
1.0
  2
STEEL
 70
     0
 71
     1
 91
        2
 92
        7
 72
     1
 73
     1
 93
       18
 10
196.7258499458863
 20
64.96882226226336
 42
0.4599129408558854
 10
195.2475740423108
 20
67.62168034256403
 42
-0.3565002934507083
 10
192.8464647043134
 20
70.561294258534
 42
0.0
 10
192.8464647043134
 20
71.15286254891405
 42
0.0
 10
192.3464647043132
 20
71.65286254891396
 42
0.0
 10
186.2741718910551
 20
71.65286254891305
 42
0.3178372451957861
 10
185.8027673702644
 20
71.31952921557981
 42
-0.3178372451958027
 10
184.8599583286821
 20
70.65286254891283
 42
0.0
 10
179.5878987972152
 20
70.65286254891237
 42
0.0
 10
178.8464647043139
 20
68.61578912065064
 42
0.0
 10
178.8464647043153
 20
61.27772028733478
 42
-0.3639702342663145
 10
178.4332887931481
 20
60.7853164108279
 42
0.0
 10
177.2596406154823
 20
60.57837057124633
 42
0.3639702342662587
 10
176.8464647043158
 20
60.08596669474037
 42
0.0
 10
176.8464647043158
 20
58.65286254891135
 42
0.4142135623731166
 10
178.8464647043157
 20
56.65286254891157
 42
0.0
 10
189.4978429116127
 20
56.65286254891236
 42
0.3152987888790077
 10
195.135998636328
 20
60.60074168895916
 42
0.0
 97
        1
330
59D4
 92
       24
 93
        4
 72
     1
 10
183.5099561923875
 20
69.12665271978045
 11
183.5099561923875
 21
59.87665271978045
 72
     1
 10
183.5099561923875
 20
59.87665271978045
 11
188.5694800019113
 21
59.87665271978045
 72
     1
 10
188.5694800019113
 20
59.87665271978045
 11
188.5694800019113
 21
69.12665271978045
 72
     1
 10
188.5694800019113
 20
69.12665271978045
 11
183.5099561923875
 21
69.12665271978045
 97
        1
330
59D5
 75
     0
 76
     1
 52
-0.0000000000000127
 41
1.0
 77
     0
 78
     2
 53
44.99999999999999
 43
347.3826719164491
 44
225.5813598809289
 45
-2.245064030267286
 46
2.245064030267287
 79
     0
 53
44.99999999999999
 43
347.3826719164491
 44
227.1688598809289
 45
-2.245064030267286
 46
2.245064030267287
 79
     0
 47
0.4646507081618963
 98
        1
 10
193.449652751131
 20
63.37288373081666
1001
ACAD
1010
0.0
1020
0.0
1030
0.0
  0
LWPOLYLINE
  5
59D4
102
{ACAD_REACTORS
330
59D3
102
}
330
1F
100
AcDbEntity
  8
Glasleiste
100
AcDbPolyline
 90
       19
 70
     1
 43
0.0
 10
195.135998636328
 20
60.60074168895923
 10
196.7258499458864
 20
64.96882226226353
 42
0.4400105308918081
 10
195.364102794519
 20
67.58471420149295
 10
195.0700075690064
 20
67.66351677966693
 42
-0.3394542588633679
 10
192.8464647043134
 20
70.56129425853305
 10
192.8464647043134
 20
71.15286254891405
 10
192.3464647043132
 20
71.65286254891396
 10
186.2741718910555
 20
71.65286254891305
 42
0.3178372451958047
 10
185.8027673702645
 20
71.31952921558016
 42
-0.3178372451957714
 10
184.8599583286826
 20
70.65286254891283
 10
179.5878987972152
 20
70.65286254891237
 10
178.8464647043139
 20
68.61578912065064
 10
178.8464647043153
 20
61.27772028733486
 42
-0.3639702342661387
 10
178.4332887931485
 20
60.78531641082796
 10
177.2596406154824
 20
60.57837057124634
 42
0.3639702342662978
 10
176.8464647043158
 20
60.08596669474044
 10
176.8464647043158
 20
58.65286254891145
 42
0.4142135623731284
 10
178.8464647043157
 20
56.65286254891157
 10
189.4978429116127
 20
56.65286254891236
 42
0.3152987888790134
  0
MTEXT
  5
59D5
102
{ACAD_REACTORS
330
59D3
102
}
330
1F
100
AcDbEntity
  8
Bemaßung
100
AcDbMText
 10
187.9444800019113
 20
68.50165271978045
 30
0.0
 40
2.5
 41
15.20500240567617
 71
     1
 72
     5
  1
20/15
  7
RomanS
 11
-0.0000000000000002
 21
-1.0
 31
0.0
 73
     1
 44
1.0
1001
ACAD
1000
MTEXTBEGIN
1070
    73
1070
     1
1070
    44
1040
1.0
1070
    74
1070
     0
1000
MTEXTEND
  0
INSERT
  5
5A19
330
1F
100
AcDbEntity
  8
0
100
AcDbBlockReference
  2
Glas 46mm un IV
 10
178.846464867948
 20
118.5352266381125
 30
0.0
 50
270.0
  0
HATCH
  5
5A4E
330
1F
100
AcDbEntity
  8
Schraffur
 62
    84
100
AcDbHatch
 10
0.0
 20
0.0
 30
0.0
210
0.0
220
0.0
230
1.0
  2
STEEL
 70
     0
 71
     1
 91
        1
 92
        7
 72
     1
 73
     1
 93
        3
 10
251.1144152049683
 20
133.6242114744621
 42
0.0435593504847584
 10
253.2111457662979
 20
131.5399424944817
 42
0.0
 10
253.2111457662979
 20
133.6242114744621
 42
0.0
 97
        3
330
59FA
330
59F6
330
59F3
 75
     0
 76
     1
 52
0.0
 41
2.0
 77
     0
 78
     2
 53
225.0
 43
247.1580143512241
 44
123.5930009640401
 45
-4.490128060534574
 46
4.490128060534575
 79
     0
 53
225.0
 43
243.9830143512242
 44
123.5930009640401
 45
-4.490128060534574
 46
4.490128060534575
 79
     0
 47
0.0648580740641196
 98
        1
 10
252.5508868432253
 20
133.2592122094661
1001
ACAD
1010
0.0
1020
0.0
1030
0.0
1001
AcDbBlockRepETag
1070
     1
1071
       24
1005
59FB
  0
LINE
  5
5A4F
330
1F
100
AcDbEntity
  8
Aluhalter
100
AcDbLine
 10
253.2111457662979
 20
134.1242114744621
 30
0.0
 11
254.2333600642051
 21
130.7509042913686
 31
0.0
1001
AcDbBlockRepETag
1070
     1
1071
        9
1005
59FD
  0
LINE
  5
5A50
330
1F
100
AcDbEntity
  8
Aluhalter
100
AcDbLine
 10
256.7401343134829
 20
129.2698736801737
 30
0.0
 11
258.2111457662977
 21
134.1242114744621
 31
0.0
1001
AcDbBlockRepETag
1070
     1
1071
       10
1005
59FE
  0
LWPOLYLINE
  5
5A51
330
1F
100
AcDbEntity
  8
Aluhalter
100
AcDbPolyline
 90
        4
 70
     0
 43
0.0
 10
253.2111457662979
 20
131.5399424944837
 10
253.2111457662979
 20
134.1242114744621
 10
258.2111457662977
 20
134.1242114744621
 10
258.2111457662977
 20
128.6464003099214
1001
AcDbBlockRepETag
1070
     1
1071
       28
1005
59FF
  0
LWPOLYLINE
  5
5A52
330
1F
100
AcDbEntity
  8
Glas
 62
   251
100
AcDbPolyline
 90
        5
 70
     0
 43
0.0
 10
270.2111457662977
 20
128.7285047145073
 10
270.2111457662977
 20
131.1242114744625
 10
260.2111457662976
 20
131.1242114744625
 10
258.2111457662977
 20
129.1242114744625
 10
258.2111457662977
 20
128.6464003099214
1001
AcDbBlockRepETag
1070
     1
1071
       21
1005
5A00
  0
HATCH
  5
5A53
330
1F
100
AcDbEntity
  8
Glas
 62
   150
100
AcDbHatch
 10
0.0
 20
0.0
 30
0.0
210
0.0
220
0.0
230
1.0
  2
AR-CONC
 70
     0
 71
     0
 91
        1
 92
        7
 72
     1
 73
     1
 93
        6
 10
258.7111457662977
 20
131.1242114744625
 42
0.0
 10
258.2111457662977
 20
131.6242114744625
 42
0.0
 10
258.2111457662977
 20
134.6242114744621
 42
0.0
 10
258.7111457662977
 20
135.1242114744621
 42
0.0
 10
278.2211730187917
 20
135.1242114744621
 42
-0.081123584071759
 10
274.4749618350938
 20
131.1242114744625
 42
0.0
 97
        0
 75
     0
 76
     1
 52
180.0
 41
0.02
 77
     0
 78
    13
 53
40.0
 43
247.1580143512265
 44
123.5930009640403
 45
-0.3187817107780614
 46
3.64369337992008
 79
     2
 49
0.3809999999999999
 49
-4.190999999999995
 53
94.99999999999998
 43
247.1580143512265
 44
123.5930009640403
 45
3.821132857643598
 46
-0.7048565195133408
 79
     2
 49
0.3048
 49
-3.352799999999998
 53
349.549
 43
247.1314493512265
 44
123.8966409640403
 45
3.502333756405836
 46
2.938850033319178
 79
     2
 49
0.3237999999999999
 49
-3.561799999999998
 53
43.8158
 43
248.1740143512265
 44
123.5930009640403
 45
-0.8408465586545423
 46
5.421580817842596
 79
     2
 49
0.5714999999999999
 49
-6.286499999999997
 53
353.3644
 43
248.1039443512265
 44
124.0447989640403
 45
4.948511117800983
 46
4.748084689324741
 79
     2
 49
0.4856999999999994
 49
-5.342699999999986
 53
98.81600000000007
 43
248.1740143512265
 44
123.5930009640403
 45
4.948502357211951
 46
4.748092116278674
 79
     2
 49
0.4572
 49
-5.0292
 53
69.00000000000002
 43
247.9200143512265
 44
124.1010009640403
 45
-2.045310370335245
 46
3.032297596707665
 79
     2
 49
0.381
 49
-4.190999999999997
 53
123.9999999999999
 43
247.9200143512265
 44
124.1010009640403
 45
3.683759322446384
 46
1.236040566952939
 79
     2
 49
0.3048
 49
-3.352799999999998
 53
18.54859999999991
 43
247.7495723512265
 44
124.3536909640403
 45
1.638457154321149
 46
4.268329815402488
 79
     2
 49
0.3237999999999999
 49
-3.561799999999998
 53
52.5
 43
247.1580143512265
 44
123.5930009640403
 45
1.691100777463059
 46
0.0617720650118361
 79
     6
 49
0.0
 49
-3.312159999999998
 49
0.0
 49
-3.403599999999998
 49
0.0
 49
-3.365499999999998
 53
82.50000000000001
 43
247.1580143512265
 44
123.5930009640403
 45
2.00361149636239
 46
1.336393250206112
 79
     6
 49
0.0
 49
-1.940559999999995
 49
0.0
 49
-3.235959999999995
 49
0.0
 49
-1.282699999999997
 53
122.5
 43
247.1580143512265
 44
122.4601609640403
 45
-0.1145748798534689
 46
2.711811903337423
 79
     6
 49
0.0
 49
-1.27
 49
0.0
 49
-3.9624
 49
0.0
 49
-5.257799999999996
 53
132.5
 43
247.1580143512265
 44
121.9521609640403
 45
0.5085298206666608
 46
2.962583627720361
 79
     6
 49
0.0
 49
-1.650999999999999
 49
0.0
 49
-2.63144
 49
0.0
 49
-3.7338
 47
0.0484061782568556
 98
        2
 10
270.5292532028135
 20
132.9650597002457
 10
275.4559673051457
 20
133.9233522955522
1001
ACAD
1010
0.0
1020
0.0
1030
0.0
1001
AcDbBlockRepETag
1070
     1
1071
       29
1005
5A01
  0
HATCH
  5
5A54
330
1F
100
AcDbEntity
  8
Glas
 62
   251
100
AcDbHatch
 10
0.0
 20
0.0
 30
0.0
210
0.0
220
0.0
230
1.0
  2
GRAVEL
 70
     0
 71
     0
 91
        1
 92
        5
 93
        5
 72
     2
 10
264.1023194675268
 20
144.5930009640409
 40
17.00000000000059
 50
428.9401640858571
 51
470.2758088379532
 73
     0
 72
     1
 10
258.2111457662977
 20
128.6464003099214
 11
258.2111457662977
 21
129.1242114744625
 72
     1
 10
258.2111457662977
 20
129.1242114744625
 11
260.2111457662977
 21
131.1242114744625
 72
     1
 10
260.2111457662976
 20
131.1242114744625
 11
270.2111457662977
 21
131.1242114744625
 72
     1
 10
270.2111457662977
 20
131.1242114744625
 11
270.2111457662977
 21
128.7285047145073
 97
        0
 75
     0
 76
     1
 52
180.0
 41
0.1
 77
     0
 78
    42
 53
221.9872
 43
257.7511457662979
 44
124.7030114744625
 45
-22.86002808951257
 46
-20.32001726589601
 79
     2
 49
0.3417209999999987
 49
-33.83049999999988
 53
265.0303
 43
257.4971457662979
 44
124.4744114744626
 45
2.539982075387456
 46
30.48004930617913
 79
     2
 49
0.5864050000000001
 49
-58.05399999999998
 53
317.4896
 43
257.4463457662979
 44
123.8902114744625
 45
-27.94002729246042
 46
25.39998151833171
 79
     2
 49
0.413482
 49
-40.93469999999999
 53
182.7262999999999
 43
256.8113457662978
 44
122.8996114744625
 45
50.79998365336643
 46
2.539988970828154
 79
     2
 49
0.5340049999999998
 49
-52.86639999999998
 53
157.1663
 43
256.2779457662979
 44
122.8742114744625
 45
30.48001733005111
 46
-12.7000360555019
 79
     2
 49
0.5236339999999986
 49
-51.83979999999984
 53
92.72629999999997
 43
255.7953457662979
 44
123.0774114744626
 45
2.539988970828168
 46
-50.79998365336643
 79
     2
 49
0.5340050000000001
 49
-52.8664
 53
52.30579999999999
 43
255.7699457662979
 44
123.6108114744626
 45
-25.3999773569849
 46
-33.02002086123994
 79
     2
 49
0.706194
 49
-69.91310000000002
 53
17.74469999999996
 43
256.2017457662979
 44
124.1696114744626
 45
55.88001620603638
 46
17.78003556546717
 79
     2
 49
0.6667200000000002
 49
-66.0053
 53
328.5704
 43
256.8367457662979
 44
124.3728114744625
 45
33.01996115997269
 46
-20.32000523526449
 79
     2
 49
0.535813
 49
-53.04549999999998
 53
274.7636
 43
257.2939457662978
 44
124.0934114744625
 45
-2.539976162721151
 46
27.93997805305446
 79
     2
 49
0.611712999999998
 49
-29.97389999999992
 53
227.6026
 43
257.3447457662977
 44
123.4838114744625
 45
-27.93996365063696
 46
-30.48000091723971
 79
     2
 49
0.7910779999999999
 49
-78.31679999999998
 53
311.1859
 43
256.7859457662978
 44
125.4142114744626
 45
15.23997655712399
 46
-17.77998867422471
 79
     2
 49
0.270005
 49
-26.7306
 53
278.5308
 43
256.9637457662978
 44
125.2110114744626
 45
-5.080012800045693
 46
33.01994959559142
 79
     2
 49
0.5136819999999994
 49
-50.85459999999996
 53
225.0
 43
257.0399457662979
 44
124.7030114744625
 45
-2.539998268700193
 46
0.0
 79
     2
 49
0.3592090000000001
 49
-3.232889999999997
 53
246.8014
 43
257.3447457662977
 44
124.5252114744625
 45
5.080022274306258
 46
12.70004282559083
 79
     2
 49
0.1934409999999998
 49
-19.15059999999996
 53
158.1986
 43
257.2685457662978
 44
124.3474114744625
 45
7.62000490873186
 46
-2.540001781894509
 79
     2
 49
0.2735659999999989
 49
-13.40479999999997
 53
59.0362
 43
257.0145457662979
 44
124.4490114744626
 45
5.080003958660546
 46
7.619991954808223
 79
     2
 49
0.44432
 49
-14.36629999999999
 53
288.4349
 43
257.2431457662978
 44
124.8300114744625
 45
-2.539996222465074
 46
5.080002318180981
 79
     2
 49
0.3212869999999998
 49
-7.71089999999999
 53
73.61049999999998
 43
257.2685457662978
 44
122.8742114744625
 45
7.619984149967804
 46
25.40001401396935
 79
     2
 49
0.4500879999999994
 49
-44.5587999999998
 53
19.6538
 43
257.3955457662978
 44
123.3060114744625
 45
-27.939960488545
 46
-10.1599716886765
 79
     2
 49
0.377599
 49
-37.3822
 53
156.8014000000001
 43
257.7511457662979
 44
124.8300114744625
 45
12.70004282559083
 46
-5.080022274306261
 79
     2
 49
0.3868799999999999
 49
-18.9572
 53
106.3895
 43
257.3955457662978
 44
124.9824114744625
 45
7.61998414996781
 46
-25.40001401396935
 79
     2
 49
0.4500880000000003
 49
-44.55879999999996
 53
110.5559999999998
 43
255.6937457662979
 44
122.8742114744625
 45
5.079993836050133
 46
-12.70001576425591
 79
     2
 49
0.4340350000000001
 49
-21.2677
 53
155.2249
 43
255.5413457662979
 44
123.2806114744626
 45
27.93998702615667
 46
-12.69997040362685
 79
     2
 49
0.3636719999999997
 49
-36.00359999999995
 53
23.19859999999998
 43
255.2111457662979
 44
124.8554114744625
 45
12.70004282559083
 46
5.080022274306261
 79
     2
 49
0.3868799999999986
 49
-18.95719999999994
 53
72.646
 43
255.5667457662979
 44
125.0078114744625
 45
-10.15998467560564
 46
-33.02000178185996
 79
     2
 49
0.4257830000000002
 49
-42.15239999999996
 53
20.556
 43
255.2111457662979
 44
123.6108114744626
 45
-12.70001576425591
 46
-5.079993836050136
 79
     2
 49
0.217018
 49
-21.4848
 53
348.6901000000001
 43
255.2111457662979
 44
124.7030114744625
 45
10.15996746090262
 46
-2.539987462887348
 79
     2
 49
0.129515
 49
-12.822
 53
284.0362
 43
255.3381457662979
 44
124.6776114744625
 45
-2.53999560412364
 46
7.620005354697172
 79
     2
 49
0.5236340000000002
 49
-9.949049999999999
 53
263.991
 43
255.4651457662979
 44
124.1696114744626
 45
2.539994068547859
 46
25.39996254442795
 79
     2
 49
0.485267
 49
-48.0414
 53
146.3099000000001
 43
256.7859457662978
 44
124.4490114744626
 45
5.079995099231838
 46
-2.540000871307233
 79
     2
 49
0.366324
 49
-8.791780000000001
 53
96.84280000000004
 43
256.4811457662978
 44
124.6522114744625
 45
-5.080022751654831
 46
43.18001785664342
 79
     2
 49
0.639557
 49
-63.31599999999998
 53
29.05459999999999
 43
256.4049457662979
 44
125.2872114744626
 45
-17.77995761083413
 46
-10.15997636582908
 79
     2
 49
0.261508
 49
-25.8894
 53
360.0
 43
256.6335457662979
 44
125.4142114744626
 45
2.539999999999999
 46
-2.54
 79
     2
 49
0.1524
 49
-2.387599999999999
 53
329.7436
 43
255.5413457662979
 44
124.1188114744625
 45
-17.77999103247755
 46
10.15997846683611
 79
     2
 49
0.3528669999999999
 49
-34.9339
 53
41.9872
 43
255.8461457662978
 44
123.9410114744625
 45
22.86002808951257
 46
20.32001726589601
 79
     2
 49
0.6834430000000003
 49
-33.48880000000001
 53
90.0
 43
256.3541457662978
 44
124.3982114744625
 45
2.539999999999999
 46
2.539999999999999
 79
     2
 49
0.6604000000000001
 49
-1.879599999999999
 53
124.6952
 43
256.3541457662978
 44
125.0586114744625
 45
17.78000169048476
 46
-25.3999559909537
 79
     2
 49
0.401609999999999
 49
-39.75929999999988
 53
195.9454
 43
256.125545766298
 44
125.3888114744626
 45
-10.16002420320363
 46
-2.54000647970147
 79
     2
 49
0.369829
 49
-18.1217
 53
242.3540000000001
 43
255.7699457662979
 44
125.2872114744626
 45
-25.40001597472339
 46
-48.25998304902271
 79
     2
 49
0.6021450000000002
 49
-59.61249999999998
 53
274.5739
 43
255.4905457662979
 44
124.7538114744626
 45
2.539987711219453
 46
-33.02000760474751
 79
     2
 49
0.6370289999999994
 49
-63.06579999999996
 53
274.5739
 43
255.4905457662979
 44
124.7538114744626
 45
2.539987711219453
 46
-33.02000760474751
 79
     2
 49
0.6370289999999994
 49
-63.06579999999996
 47
0.0
 98
        1
 10
264.4804207699297
 20
129.4701188796552
1001
ACAD
1010
0.0
1020
0.0
1030
0.0
1001
AcDbBlockRepETag
1070
     1
1071
       25
1005
5A02
  0
LWPOLYLINE
  5
5A55
330
1F
100
AcDbEntity
  8
Glas
 62
   150
100
AcDbPolyline
 90
        6
 70
     0
 43
0.0
 10
274.4749618350938
 20
131.1242114744625
 10
258.7111457662977
 20
131.1242114744625
 10
258.2111457662977
 20
131.6242114744625
 10
258.2111457662977
 20
134.6242114744621
 10
258.7111457662977
 20
135.1242114744621
 10
278.2211730187917
 20
135.1242114744621
1001
AcDbBlockRepETag
1070
     1
1071
       30
1005
5A03
  0
HATCH
  5
5A56
330
1F
100
AcDbEntity
  8
Schraffur
 62
    84
100
AcDbHatch
 10
0.0
 20
0.0
 30
0.0
210
0.0
220
0.0
230
1.0
  2
STEEL
 70
     0
 71
     1
 91
        1
 92
        7
 72
     1
 73
     1
 93
        3
 10
213.1144152049645
 20
133.6242114744697
 42
0.0435593504847584
 10
215.211145766294
 20
131.5399424944893
 42
0.0
 10
215.211145766294
 20
133.6242114744697
 42
0.0
 97
        3
330
59FA
330
59F6
330
59F3
 75
     0
 76
     1
 52
0.0
 41
2.0
 77
     0
 78
     2
 53
225.0
 43
209.1580143512203
 44
123.5930009640477
 45
-4.490128060534574
 46
4.490128060534575
 79
     0
 53
225.0
 43
205.9830143512203
 44
123.5930009640477
 45
-4.490128060534574
 46
4.490128060534575
 79
     0
 47
0.0648580740641196
 98
        1
 10
214.5508868432214
 20
133.2592122094736
1001
ACAD
1010
0.0
1020
0.0
1030
0.0
1001
AcDbBlockRepETag
1070
     1
1071
       24
1005
59FB
  0
LINE
  5
5A57
330
1F
100
AcDbEntity
  8
Aluhalter
100
AcDbLine
 10
215.211145766294
 20
134.1242114744697
 30
0.0
 11
216.2333600642012
 21
130.7509042913762
 31
0.0
1001
AcDbBlockRepETag
1070
     1
1071
        9
1005
59FD
  0
LINE
  5
5A58
330
1F
100
AcDbEntity
  8
Aluhalter
100
AcDbLine
 10
218.7401343134791
 20
129.2698736801813
 30
0.0
 11
220.2111457662939
 21
134.1242114744697
 31
0.0
1001
AcDbBlockRepETag
1070
     1
1071
       10
1005
59FE
  0
LWPOLYLINE
  5
5A59
330
1F
100
AcDbEntity
  8
Aluhalter
100
AcDbPolyline
 90
        4
 70
     0
 43
0.0
 10
215.211145766294
 20
131.5399424944913
 10
215.211145766294
 20
134.1242114744697
 10
220.2111457662939
 20
134.1242114744697
 10
220.2111457662939
 20
128.646400309929
1001
AcDbBlockRepETag
1070
     1
1071
       28
1005
59FF
  0
LWPOLYLINE
  5
5A5A
330
1F
100
AcDbEntity
  8
Glas
 62
   251
100
AcDbPolyline
 90
        5
 70
     0
 43
0.0
 10
232.2111457662939
 20
128.7285047145149
 10
232.2111457662939
 20
131.1242114744701
 10
222.2111457662937
 20
131.1242114744701
 10
220.2111457662939
 20
129.1242114744701
 10
220.2111457662939
 20
128.646400309929
1001
AcDbBlockRepETag
1070
     1
1071
       21
1005
5A00
  0
HATCH
  5
5A5B
330
1F
100
AcDbEntity
  8
Glas
 62
   150
100
AcDbHatch
 10
0.0
 20
0.0
 30
0.0
210
0.0
220
0.0
230
1.0
  2
AR-CONC
 70
     0
 71
     0
 91
        1
 92
        7
 72
     1
 73
     1
 93
        6
 10
220.7111457662938
 20
131.1242114744701
 42
0.0
 10
220.2111457662939
 20
131.6242114744701
 42
0.0
 10
220.2111457662939
 20
134.6242114744697
 42
0.0
 10
220.7111457662938
 20
135.1242114744697
 42
0.0
 10
240.2211730187878
 20
135.1242114744697
 42
-0.081123584071759
 10
236.4749618350899
 20
131.1242114744701
 42
0.0
 97
        0
 75
     0
 76
     1
 52
180.0
 41
0.02
 77
     0
 78
    13
 53
40.0
 43
209.1580143512226
 44
123.5930009640479
 45
-0.3187817107780614
 46
3.64369337992008
 79
     2
 49
0.3809999999999999
 49
-4.190999999999995
 53
94.99999999999998
 43
209.1580143512226
 44
123.5930009640479
 45
3.821132857643598
 46
-0.7048565195133408
 79
     2
 49
0.3048
 49
-3.352799999999998
 53
349.549
 43
209.1314493512226
 44
123.8966409640479
 45
3.502333756405836
 46
2.938850033319178
 79
     2
 49
0.3237999999999999
 49
-3.561799999999998
 53
43.8158
 43
210.1740143512226
 44
123.5930009640479
 45
-0.8408465586545423
 46
5.421580817842596
 79
     2
 49
0.5714999999999999
 49
-6.286499999999997
 53
353.3644
 43
210.1039443512226
 44
124.0447989640479
 45
4.948511117800983
 46
4.748084689324741
 79
     2
 49
0.4856999999999994
 49
-5.342699999999986
 53
98.81600000000007
 43
210.1740143512226
 44
123.5930009640479
 45
4.948502357211951
 46
4.748092116278674
 79
     2
 49
0.4572
 49
-5.0292
 53
69.00000000000002
 43
209.9200143512226
 44
124.1010009640479
 45
-2.045310370335245
 46
3.032297596707665
 79
     2
 49
0.381
 49
-4.190999999999997
 53
123.9999999999999
 43
209.9200143512226
 44
124.1010009640479
 45
3.683759322446384
 46
1.236040566952939
 79
     2
 49
0.3048
 49
-3.352799999999998
 53
18.54859999999991
 43
209.7495723512226
 44
124.3536909640479
 45
1.638457154321149
 46
4.268329815402488
 79
     2
 49
0.3237999999999999
 49
-3.561799999999998
 53
52.5
 43
209.1580143512226
 44
123.5930009640479
 45
1.691100777463059
 46
0.0617720650118361
 79
     6
 49
0.0
 49
-3.312159999999998
 49
0.0
 49
-3.403599999999998
 49
0.0
 49
-3.365499999999998
 53
82.50000000000001
 43
209.1580143512226
 44
123.5930009640479
 45
2.00361149636239
 46
1.336393250206112
 79
     6
 49
0.0
 49
-1.940559999999995
 49
0.0
 49
-3.235959999999995
 49
0.0
 49
-1.282699999999997
 53
122.5
 43
209.1580143512226
 44
122.4601609640479
 45
-0.1145748798534689
 46
2.711811903337423
 79
     6
 49
0.0
 49
-1.27
 49
0.0
 49
-3.9624
 49
0.0
 49
-5.257799999999996
 53
132.5
 43
209.1580143512226
 44
121.9521609640479
 45
0.5085298206666608
 46
2.962583627720361
 79
     6
 49
0.0
 49
-1.650999999999999
 49
0.0
 49
-2.63144
 49
0.0
 49
-3.7338
 47
0.0484061782568556
 98
        2
 10
232.5292532028096
 20
132.9650597002533
 10
237.4559673051418
 20
133.9233522955597
1001
ACAD
1010
0.0
1020
0.0
1030
0.0
1001
AcDbBlockRepETag
1070
     1
1071
       29
1005
5A01
  0
HATCH
  5
5A5C
330
1F
100
AcDbEntity
  8
Glas
 62
   251
100
AcDbHatch
 10
0.0
 20
0.0
 30
0.0
210
0.0
220
0.0
230
1.0
  2
GRAVEL
 70
     0
 71
     0
 91
        1
 92
        5
 93
        5
 72
     2
 10
226.102319467523
 20
144.5930009640485
 40
17.00000000000059
 50
428.9401640858571
 51
470.2758088379532
 73
     0
 72
     1
 10
220.2111457662939
 20
128.646400309929
 11
220.2111457662939
 21
129.1242114744701
 72
     1
 10
220.2111457662939
 20
129.1242114744701
 11
222.2111457662937
 21
131.1242114744701
 72
     1
 10
222.2111457662937
 20
131.1242114744701
 11
232.2111457662938
 21
131.1242114744701
 72
     1
 10
232.2111457662939
 20
131.1242114744701
 11
232.2111457662939
 21
128.7285047145149
 97
        0
 75
     0
 76
     1
 52
180.0
 41
0.1
 77
     0
 78
    42
 53
221.9872
 43
219.751145766294
 44
124.7030114744701
 45
-22.86002808951257
 46
-20.32001726589601
 79
     2
 49
0.3417209999999987
 49
-33.83049999999988
 53
265.0303
 43
219.497145766294
 44
124.4744114744702
 45
2.539982075387456
 46
30.48004930617913
 79
     2
 49
0.5864050000000001
 49
-58.05399999999998
 53
317.4896
 43
219.446345766294
 44
123.8902114744701
 45
-27.94002729246042
 46
25.39998151833171
 79
     2
 49
0.413482
 49
-40.93469999999999
 53
182.7262999999999
 43
218.8113457662939
 44
122.8996114744701
 45
50.79998365336643
 46
2.539988970828154
 79
     2
 49
0.5340049999999998
 49
-52.86639999999998
 53
157.1663
 43
218.277945766294
 44
122.8742114744701
 45
30.48001733005111
 46
-12.7000360555019
 79
     2
 49
0.5236339999999986
 49
-51.83979999999984
 53
92.72629999999997
 43
217.795345766294
 44
123.0774114744701
 45
2.539988970828168
 46
-50.79998365336643
 79
     2
 49
0.5340050000000001
 49
-52.8664
 53
52.30579999999999
 43
217.769945766294
 44
123.6108114744701
 45
-25.3999773569849
 46
-33.02002086123994
 79
     2
 49
0.706194
 49
-69.91310000000002
 53
17.74469999999996
 43
218.201745766294
 44
124.1696114744701
 45
55.88001620603638
 46
17.78003556546717
 79
     2
 49
0.6667200000000002
 49
-66.0053
 53
328.5704
 43
218.836745766294
 44
124.3728114744701
 45
33.01996115997269
 46
-20.32000523526449
 79
     2
 49
0.535813
 49
-53.04549999999998
 53
274.7636
 43
219.293945766294
 44
124.0934114744701
 45
-2.539976162721151
 46
27.93997805305446
 79
     2
 49
0.611712999999998
 49
-29.97389999999992
 53
227.6026
 43
219.3447457662939
 44
123.4838114744701
 45
-27.93996365063696
 46
-30.48000091723971
 79
     2
 49
0.7910779999999999
 49
-78.31679999999998
 53
311.1859
 43
218.785945766294
 44
125.4142114744701
 45
15.23997655712399
 46
-17.77998867422471
 79
     2
 49
0.270005
 49
-26.7306
 53
278.5308
 43
218.9637457662939
 44
125.2110114744702
 45
-5.080012800045693
 46
33.01994959559142
 79
     2
 49
0.5136819999999994
 49
-50.85459999999996
 53
225.0
 43
219.039945766294
 44
124.7030114744701
 45
-2.539998268700193
 46
0.0
 79
     2
 49
0.3592090000000001
 49
-3.232889999999997
 53
246.8014
 43
219.3447457662939
 44
124.5252114744701
 45
5.080022274306258
 46
12.70004282559083
 79
     2
 49
0.1934409999999998
 49
-19.15059999999996
 53
158.1986
 43
219.2685457662939
 44
124.3474114744701
 45
7.62000490873186
 46
-2.540001781894509
 79
     2
 49
0.2735659999999989
 49
-13.40479999999997
 53
59.0362
 43
219.014545766294
 44
124.4490114744702
 45
5.080003958660546
 46
7.619991954808223
 79
     2
 49
0.44432
 49
-14.36629999999999
 53
288.4349
 43
219.243145766294
 44
124.8300114744701
 45
-2.539996222465074
 46
5.080002318180981
 79
     2
 49
0.3212869999999998
 49
-7.71089999999999
 53
73.61049999999998
 43
219.2685457662939
 44
122.8742114744701
 45
7.619984149967804
 46
25.40001401396935
 79
     2
 49
0.4500879999999994
 49
-44.5587999999998
 53
19.6538
 43
219.3955457662939
 44
123.3060114744701
 45
-27.939960488545
 46
-10.1599716886765
 79
     2
 49
0.377599
 49
-37.3822
 53
156.8014000000001
 43
219.751145766294
 44
124.8300114744701
 45
12.70004282559083
 46
-5.080022274306261
 79
     2
 49
0.3868799999999999
 49
-18.9572
 53
106.3895
 43
219.3955457662939
 44
124.9824114744701
 45
7.61998414996781
 46
-25.40001401396935
 79
     2
 49
0.4500880000000003
 49
-44.55879999999996
 53
110.5559999999998
 43
217.693745766294
 44
122.8742114744701
 45
5.079993836050133
 46
-12.70001576425591
 79
     2
 49
0.4340350000000001
 49
-21.2677
 53
155.2249
 43
217.541345766294
 44
123.2806114744701
 45
27.93998702615667
 46
-12.69997040362685
 79
     2
 49
0.3636719999999997
 49
-36.00359999999995
 53
23.19859999999998
 43
217.211145766294
 44
124.8554114744701
 45
12.70004282559083
 46
5.080022274306261
 79
     2
 49
0.3868799999999986
 49
-18.95719999999994
 53
72.646
 43
217.566745766294
 44
125.0078114744701
 45
-10.15998467560564
 46
-33.02000178185996
 79
     2
 49
0.4257830000000002
 49
-42.15239999999996
 53
20.556
 43
217.211145766294
 44
123.6108114744701
 45
-12.70001576425591
 46
-5.079993836050136
 79
     2
 49
0.217018
 49
-21.4848
 53
348.6901000000001
 43
217.211145766294
 44
124.7030114744701
 45
10.15996746090262
 46
-2.539987462887348
 79
     2
 49
0.129515
 49
-12.822
 53
284.0362
 43
217.338145766294
 44
124.6776114744701
 45
-2.53999560412364
 46
7.620005354697172
 79
     2
 49
0.5236340000000002
 49
-9.949049999999999
 53
263.991
 43
217.465145766294
 44
124.1696114744701
 45
2.539994068547859
 46
25.39996254442795
 79
     2
 49
0.485267
 49
-48.0414
 53
146.3099000000001
 43
218.785945766294
 44
124.4490114744702
 45
5.079995099231838
 46
-2.540000871307233
 79
     2
 49
0.366324
 49
-8.791780000000001
 53
96.84280000000004
 43
218.4811457662939
 44
124.6522114744701
 45
-5.080022751654831
 46
43.18001785664342
 79
     2
 49
0.639557
 49
-63.31599999999998
 53
29.05459999999999
 43
218.404945766294
 44
125.2872114744701
 45
-17.77995761083413
 46
-10.15997636582908
 79
     2
 49
0.261508
 49
-25.8894
 53
360.0
 43
218.633545766294
 44
125.4142114744701
 45
2.539999999999999
 46
-2.54
 79
     2
 49
0.1524
 49
-2.387599999999999
 53
329.7436
 43
217.541345766294
 44
124.1188114744701
 45
-17.77999103247755
 46
10.15997846683611
 79
     2
 49
0.3528669999999999
 49
-34.9339
 53
41.9872
 43
217.846145766294
 44
123.9410114744701
 45
22.86002808951257
 46
20.32001726589601
 79
     2
 49
0.6834430000000003
 49
-33.48880000000001
 53
90.0
 43
218.3541457662939
 44
124.3982114744701
 45
2.539999999999999
 46
2.539999999999999
 79
     2
 49
0.6604000000000001
 49
-1.879599999999999
 53
124.6952
 43
218.3541457662939
 44
125.0586114744702
 45
17.78000169048476
 46
-25.3999559909537
 79
     2
 49
0.401609999999999
 49
-39.75929999999988
 53
195.9454
 43
218.125545766294
 44
125.3888114744702
 45
-10.16002420320363
 46
-2.54000647970147
 79
     2
 49
0.369829
 49
-18.1217
 53
242.3540000000001
 43
217.769945766294
 44
125.2872114744701
 45
-25.40001597472339
 46
-48.25998304902271
 79
     2
 49
0.6021450000000002
 49
-59.61249999999998
 53
274.5739
 43
217.490545766294
 44
124.7538114744701
 45
2.539987711219453
 46
-33.02000760474751
 79
     2
 49
0.6370289999999994
 49
-63.06579999999996
 53
274.5739
 43
217.490545766294
 44
124.7538114744701
 45
2.539987711219453
 46
-33.02000760474751
 79
     2
 49
0.6370289999999994
 49
-63.06579999999996
 47
0.0
 98
        1
 10
226.4804207699258
 20
129.4701188796627
1001
ACAD
1010
0.0
1020
0.0
1030
0.0
1001
AcDbBlockRepETag
1070
     1
1071
       25
1005
5A02
  0
LWPOLYLINE
  5
5A5D
330
1F
100
AcDbEntity
  8
Glas
 62
   150
100
AcDbPolyline
 90
        6
 70
     0
 43
0.0
 10
236.4749618350899
 20
131.1242114744701
 10
220.7111457662938
 20
131.1242114744701
 10
220.2111457662939
 20
131.6242114744701
 10
220.2111457662939
 20
134.6242114744697
 10
220.7111457662938
 20
135.1242114744697
 10
240.2211730187878
 20
135.1242114744697
1001
AcDbBlockRepETag
1070
     1
1071
       30
1005
5A03
  0
LINE
  5
5A5E
330
1F
100
AcDbEntity
  8
Aluhalter
 62
     3
100
AcDbLine
 10
178.8464648679484
 20
40.72364408795343
 30
0.0
 11
179.1813114747631
 21
43.0340856749764
 31
0.0
1001
AcDbBlockRepETag
1070
     1
1071
        7
1005
5A14
  0
LINE
  5
5A5F
330
1F
100
AcDbEntity
  8
Aluhalter
 62
     3
100
AcDbLine
 10
183.3806020870806
 20
43.93809727594049
 30
0.0
 11
183.8464648679485
 21
40.72364408795343
 31
0.0
1001
AcDbBlockRepETag
1070
     1
1071
        8
1005
5A15
  0
LWPOLYLINE
  5
5A60
330
1F
100
AcDbEntity
  8
Aluhalter
 62
     3
100
AcDbPolyline
 90
        4
 70
     0
 43
0.0
 10
178.8464648679484
 20
42.9121610172686
 10
178.8464648679484
 20
40.72364408795343
 10
183.8464648679485
 20
40.72364408795343
 10
183.8464648679485
 20
43.97152280937307
1001
AcDbBlockRepETag
1070
     1
1071
       36
1005
5A16
  0
LWPOLYLINE
  5
5A61
330
1F
100
AcDbEntity
  8
Glas
 62
   150
100
AcDbPolyline
 90
        5
 70
     0
 43
0.0
 10
184.1074573401902
 20
43.98463656019481
 10
183.8464648679485
 20
43.72364408795272
 10
183.8464648679485
 20
40.72364408795311
 10
184.3464648679484
 20
40.2236440879531
 10
195.5134461202576
 20
40.2236440879531
1001
AcDbBlockRepETag
1070
     1
1071
       37
1005
5A17
  0
HATCH
  5
5A62
330
1F
100
AcDbEntity
  8
Glas
 62
   150
100
AcDbHatch
 10
0.0
 20
0.0
 30
0.0
210
0.0
220
0.0
230
1.0
  2
AR-CONC
 70
     0
 71
     0
 91
        1
 92
        1
 93
        5
 72
     2
 10
184.830036690907
 20
26.99999999999981
 40
17.0
 50
51.0651836560979
 51
92.43607196428341
 73
     1
 72
     1
 10
184.1074573401902
 20
43.98463656019481
 11
183.8464648679484
 21
43.72364408795278
 72
     1
 10
183.8464648679485
 20
43.72364408795272
 11
183.8464648679485
 21
40.72364408795332
 72
     1
 10
183.8464648679485
 20
40.72364408795311
 11
184.3464648679484
 21
40.2236440879531
 72
     1
 10
184.3464648679484
 20
40.2236440879531
 11
195.5134461202576
 21
40.2236440879531
 97
        0
 75
     0
 76
     1
 52
-90.00000000000001
 41
0.02
 77
     0
 78
    13
 53
320.0
 43
178.8464648679484
 44
38.22364408795372
 45
-0.3187817107780624
 46
-3.64369337992008
 79
     2
 49
0.381
 49
-4.190999999999998
 53
265.0
 43
178.8464648679484
 44
38.22364408795372
 45
3.821132857643598
 46
0.7048565195133394
 79
     2
 49
0.3048
 49
-3.352799999999998
 53
10.45099999999998
 43
178.8198998679483
 44
37.9200040879536
 45
3.502333756405834
 46
-2.938850033319181
 79
     2
 49
0.3237999999999999
 49
-3.561799999999993
 53
316.1842
 43
179.8624648679483
 44
38.22364408795372
 45
-0.8408465586545437
 46
-5.421580817842596
 79
     2
 49
0.5714999999999997
 49
-6.286499999999997
 53
6.635599999999985
 43
179.7923948679483
 44
37.77184608795341
 45
4.948511117800981
 46
-4.748084689324741
 79
     2
 49
0.4857000000000001
 49
-5.342699999999996
 53
261.184
 43
179.8624648679483
 44
38.22364408795372
 45
4.948502357211951
 46
-4.748092116278677
 79
     2
 49
0.4572
 49
-5.0292
 53
291.0
 43
179.6084648679484
 44
37.71564408795342
 45
-2.045310370335247
 46
-3.032297596707663
 79
     2
 49
0.381
 49
-4.190999999999998
 53
236.0
 43
179.6084648679484
 44
37.71564408795342
 45
3.683759322446383
 46
-1.236040566952941
 79
     2
 49
0.3048
 49
-3.352799999999998
 53
341.4514
 43
179.4380228679483
 44
37.46295408795361
 45
1.638457154321148
 46
-4.268329815402489
 79
     2
 49
0.3237999999999984
 49
-3.561799999999978
 53
307.5
 43
178.8464648679484
 44
38.22364408795372
 45
1.691100777463059
 46
-0.0617720650118366
 79
     6
 49
0.0
 49
-3.312159999999995
 49
0.0
 49
-3.403599999999995
 49
0.0
 49
-3.365499999999995
 53
277.5
 43
178.8464648679484
 44
38.22364408795372
 45
2.003611496362389
 46
-1.336393250206113
 79
     6
 49
0.0
 49
-1.940559999999995
 49
0.0
 49
-3.235959999999995
 49
0.0
 49
-1.282699999999997
 53
237.5
 43
178.8464648679484
 44
39.35648408795362
 45
-0.1145748798534697
 46
-2.711811903337423
 79
     6
 49
0.0
 49
-1.27
 49
0.0
 49
-3.9624
 49
0.0
 49
-5.257799999999996
 53
227.5
 43
178.8464648679484
 44
39.8644840879536
 45
0.5085298206666598
 46
-2.962583627720361
 79
     6
 49
0.0
 49
-1.650999999999999
 49
0.0
 49
-2.63144
 49
0.0
 49
-3.7338
 98
        1
 10
201.0912864067965
 20
41.42450326686351
1001
ACAD
1010
0.0
1020
0.0
1030
0.0
1001
AcDbBlockRepETag
1070
     1
1071
       39
1005
5A18
  0
VIEWPORT
  5
290C
102
{ACAD_XDICTIONARY
360
5C4F
102
}
330
D2
100
AcDbEntity
 67
     1
  8
0
100
AcDbViewport
 10
142.454694656609
 20
98.98661349431723
 30
0.0
 40
385.2183528271291
 41
212.5342636287609
 68
     1
 69
     1
 12
142.454694656609
 22
98.98661349431723
 13
0.0
 23
0.0
 14
10.0
 24
10.0
 15
10.0
 25
10.0
 16
0.0
 26
0.0
 36
1.0
 17
0.0
 27
0.0
 37
0.0
 42
50.0
 43
0.0
 44
0.0
 45
212.5342636287609
 50
0.0
 51
0.0
 72
  1000
 90
   557088
  1

281
     0
 71
     1
 74
     0
110
0.0
120
0.0
130
0.0
111
1.0
121
0.0
131
0.0
112
0.0
122
1.0
132
0.0
 79
     0
146
0.0
  0
VIEWPORT
  5
290E
102
{ACAD_XDICTIONARY
360
5C51
102
}
330
D2
100
AcDbEntity
 67
     1
  8
0
100
AcDbViewport
 10
142.4629672039495
 20
98.98661251652232
 30
0.0
 40
296.9260902419483
 41
209.9734313603735
 68
     2
 69
     2
 12
148.4886331210178
 22
104.830202440552
 13
0.0
 23
0.0
 14
10.0
 24
10.0
 15
10.0
 25
10.0
 16
0.0
 26
0.0
 36
1.0
 17
0.0
 27
0.0
 37
0.0
 42
50.0
 43
0.0
 44
0.0
 45
209.9734357275047
 50
0.0
 51
0.0
 72
  1000
 90
   819296
  1

281
     0
 71
     1
 74
     0
110
0.0
120
0.0
130
0.0
111
1.0
121
0.0
131
0.0
112
0.0
122
1.0
132
0.0
 79
     0
146
0.0
  0
ENDSEC
  0
SECTION
  2
OBJECTS
  0
DICTIONARY
  5
C
330
0
100
AcDbDictionary
281
     1
  3
ACAD_CIP_PREVIOUS_PRODUCT_INFO
350
5B53
  3
ACAD_COLOR
350
6B
  3
ACAD_GROUP
350
D
  3
ACAD_LAYOUT
350
1A
  3
ACAD_MATERIAL
350
6A
  3
ACAD_MLEADERSTYLE
350
5B4F
  3
ACAD_MLINESTYLE
350
17
  3
ACAD_PLOTSETTINGS
350
19
  3
ACAD_PLOTSTYLENAME
350
E
  3
ACAD_SCALELIST
350
5B3D
  3
ACAD_TABLESTYLE
350
7E
  3
ACAD_VISUALSTYLE
350
EF
  3
ACDB_RECOMPOSE_DATA
350
5C29
  3
AcDbVariableDictionary
350
5E
  3
DWGPROPS
350
5C2A
  0
DICTIONARY
  5
5AF
330
2
100
AcDbDictionary
280
     1
281
     1
  3
ACAD_LAYERFILTERS
360
5A64
  3
ACAD_LAYERSTATES
360
5B0
  3
ACLYDICTIONARY
360
5A63
  0
DICTIONARY
  5
5B71
330
10
100
AcDbDictionary
280
     1
281
     1
  3
ADSK_XREC_LAYER_RECONCILED
360
5B72
  0
DICTIONARY
  5
5B73
330
59D
100
AcDbDictionary
280
     1
281
     1
  3
ADSK_XREC_LAYER_RECONCILED
360
5B74
  0
DICTIONARY
  5
5B75
330
59F
100
AcDbDictionary
280
     1
281
     1
  3
ADSK_XREC_LAYER_RECONCILED
360
5B76
  0
DICTIONARY
  5
5B77
330
5A0
100
AcDbDictionary
280
     1
281
     1
  3
ADSK_XREC_LAYER_RECONCILED
360
5B78
  0
DICTIONARY
  5
5B79
330
5A1
100
AcDbDictionary
280
     1
281
     1
  3
ADSK_XREC_LAYER_RECONCILED
360
5B7A
  0
DICTIONARY
  5
5B7B
330
5A2
100
AcDbDictionary
280
     1
281
     1
  3
ADSK_XREC_LAYER_RECONCILED
360
5B7C
  0
DICTIONARY
  5
5B7D
330
5A3
100
AcDbDictionary
280
     1
281
     1
  3
ADSK_XREC_LAYER_RECONCILED
360
5B7E
  0
DICTIONARY
  5
5B7F
330
212C
100
AcDbDictionary
280
     1
281
     1
  3
ADSK_XREC_LAYER_RECONCILED
360
5B80
  0
DICTIONARY
  5
5B81
330
212D
100
AcDbDictionary
280
     1
281
     1
  3
ADSK_XREC_LAYER_RECONCILED
360
5B82
  0
DICTIONARY
  5
5B83
330
35E3
100
AcDbDictionary
280
     1
281
     1
  3
ADSK_XREC_LAYER_RECONCILED
360
5B84
  0
DICTIONARY
  5
5B85
330
40BC
100
AcDbDictionary
280
     1
281
     1
  3
ADSK_XREC_LAYER_RECONCILED
360
5B86
  0
DICTIONARY
  5
5B87
330
4402
100
AcDbDictionary
280
     1
281
     1
  3
ADSK_XREC_LAYER_RECONCILED
360
5B88
  0
DICTIONARY
  5
5B89
330
47DC
100
AcDbDictionary
280
     1
281
     1
  3
ADSK_XREC_LAYER_RECONCILED
360
5B8A
  0
DICTIONARY
  5
5B8B
330
597D
100
AcDbDictionary
280
     1
281
     1
  3
ADSK_XREC_LAYER_RECONCILED
360
5B8C
  0
DICTIONARY
  5
1979
330
1F
100
AcDbDictionary
280
     1
281
     1
  3
ACAD_SORTENTS
360
197A
  0
DICTIONARY
  5
47B0
330
477F
100
AcDbDictionary
280
     1
281
     1
  0
DICTIONARY
  5
5AD3
330
4CC8
100
AcDbDictionary
280
     1
281
     1
  3
ACAD_SORTENTS
360
5AD5
  0
DICTIONARY
  5
5A87
330
4CD1
100
AcDbDictionary
280
     1
281
     1
  0
DICTIONARY
  5
5968
330
5967
100
AcDbDictionary
280
     1
281
     1
  0
DICTIONARY
  5
5C53
330
3EB3
100
AcDbDictionary
280
     1
281
     1
  3
ACAD_MTEXT_RT
360
5C54
  0
DICTIONARY
  5
5C55
330
3EB4
100
AcDbDictionary
280
     1
281
     1
  3
ACAD_MTEXT_RT
360
5C56
  0
DICTIONARY
  5
5AE1
330
4CE1
100
AcDbDictionary
280
     1
281
     1
  0
DICTIONARY
  5
5472
330
5465
100
AcDbDictionary
280
     1
281
     1
  3
ACAD_DIMASSOC
360
547C
  0
DICTIONARY
  5
57DD
330
57D0
100
AcDbDictionary
280
     1
281
     1
  3
ACAD_DIMASSOC
360
57E7
  0
DICTIONARY
  5
5C57
330
58F4
100
AcDbDictionary
280
     1
281
     1
  3
ACAD_MTEXT_RT
360
5C58
  0
DICTIONARY
  5
5C4F
330
290C
100
AcDbDictionary
280
     1
281
     1
  3
ACAD_XREC_ROUNDTRIP
360
5C50
  0
DICTIONARY
  5
5C51
330
290E
100
AcDbDictionary
280
     1
281
     1
  3
ACAD_XREC_ROUNDTRIP
360
5C52
  0
XRECORD
  5
5B53
102
{ACAD_REACTORS
330
C
102
}
330
C
100
AcDbXrecord
280
     1
300
ACDLT
300
2012
300
ACDLT_F_S
  0
DICTIONARY
  5
6B
102
{ACAD_REACTORS
330
C
102
}
330
C
100
AcDbDictionary
281
     1
  0
DICTIONARY
  5
D
102
{ACAD_REACTORS
330
C
102
}
330
C
100
AcDbDictionary
281
     1
  0
DICTIONARY
  5
1A
102
{ACAD_REACTORS
330
C
102
}
330
C
100
AcDbDictionary
281
     1
  3
Classic
350
D3
  3
Model
350
22
  0
DICTIONARY
  5
6A
102
{ACAD_REACTORS
330
C
102
}
330
C
100
AcDbDictionary
281
     1
  3
ByBlock
350
ED
  3
ByLayer
350
EC
  3
Global
350
EE
  0
DICTIONARY
  5
5B4F
102
{ACAD_REACTORS
330
C
102
}
330
C
100
AcDbDictionary
281
     1
  3
Standard
350
5B50
  0
DICTIONARY
  5
17
102
{ACAD_REACTORS
330
C
102
}
330
C
100
AcDbDictionary
281
     1
  3
Standard
350
18
  0
DICTIONARY
  5
19
102
{ACAD_REACTORS
330
C
102
}
330
C
100
AcDbDictionary
281
     1
  0
ACDBDICTIONARYWDFLT
  5
E
102
{ACAD_REACTORS
330
C
102
}
330
C
100
AcDbDictionary
281
     1
  3
Normal
350
F
100
AcDbDictionaryWithDefault
340
F
  0
DICTIONARY
  5
5B3D
102
{ACAD_REACTORS
330
C
102
}
330
C
100
AcDbDictionary
281
     1
  3
A0
350
5B3E
  3
A1
350
5B3F
  3
A2
350
5B40
  3
A3
350
5B41
  3
A4
350
5B42
  3
A5
350
5B43
  3
A6
350
5B44
  3
A7
350
5B45
  3
A8
350
5B46
  3
A9
350
5B47
  3
B0
350
5B48
  3
B1
350
5B49
  3
B2
350
5B4A
  3
B3
350
5B4B
  3
B4
350
5B4C
  3
B5
350
5B4D
  3
B6
350
5B4E
  0
DICTIONARY
  5
7E
102
{ACAD_REACTORS
330
C
102
}
330
C
100
AcDbDictionary
281
     1
  3
Standard
350
7F
  0
DICTIONARY
  5
EF
102
{ACAD_REACTORS
330
C
102
}
330
C
100
AcDbDictionary
281
     1
  3
2dWireframe
350
F5
  3
3D Hidden
350
F7
  3
3dWireframe
350
F6
  3
Basic
350
F4
  3
Brighten
350
FB
  3
ColorChange
350
FF
  3
Conceptual
350
F8
  3
Dim
350
FA
  3
EdgeColorOff
350
5B3C
  3
Facepattern
350
FE
  3
Flat
350
F0
  3
FlatWithEdges
350
F1
  3
Gouraud
350
F2
  3
GouraudWithEdges
350
F3
  3
Hidden
350
5B34
  3
JitterOff
350
5B3A
  3
Linepattern
350
FD
  3
OverhangOff
350
5B3B
  3
Realistic
350
F9
  3
Shaded
350
5B39
  3
Shaded with edges
350
5B38
  3
Shades of Gray
350
5B35
  3
Sketchy
350
5B36
  3
Thicken
350
FC
  3
Wireframe
350
5B33
  3
X-Ray
350
5B37
  0
XRECORD
  5
5C29
102
{ACAD_REACTORS
330
C
102
}
330
C
100
AcDbXrecord
280
     1
 90
        1
330
7F
  0
DICTIONARY
  5
5E
102
{ACAD_REACTORS
330
C
102
}
330
C
100
AcDbDictionary
281
     1
  3
CANNOSCALE
350
5B8E
  3
CMLEADERSTYLE
350
5B8D
  3
CTABLESTYLE
350
84
  3
DIMASSOC
350
5F
  3
HIDETEXT
350
63
  3
INDEXCTL
350
1E69
  3
PSOLHEIGHT
350
5C26
  3
PSOLWIDTH
350
5C25
  3
SORTENTS
350
1E68
  3
XCLIPFRAME
350
5C27
  0
XRECORD
  5
5C2A
102
{ACAD_REACTORS
330
C
102
}
330
C
100
AcDbXrecord
280
     1
  1
DWGPROPS COOKIE
  2

  3

  4

  6

  7

  8
asiol
  9

300
=
301
=
302
=
303
=
304
=
305
=
306
=
307
=
308
=
309
=
 40
0.6978184837962963
 41
2454312.596884572
 42
2455979.673947396
  1

 90
        0
  0
DICTIONARY
  5
5A64
102
{ACAD_REACTORS
330
5AF
102
}
330
5AF
100
AcDbDictionary
281
     1
  0
DICTIONARY
  5
5B0
102
{ACAD_REACTORS
330
5AF
102
}
330
5AF
100
AcDbDictionary
281
     1
  0
DICTIONARY
  5
5A63
102
{ACAD_REACTORS
330
5AF
102
}
330
5AF
100
AcDbDictionary
281
     1
1001
ACAD
1000
<All
  0
XRECORD
  5
5B72
102
{ACAD_REACTORS
330
5B71
102
}
330
5B71
100
AcDbXrecord
280
     1
290
     1
  0
XRECORD
  5
5B74
102
{ACAD_REACTORS
330
5B73
102
}
330
5B73
100
AcDbXrecord
280
     1
290
     1
  0
XRECORD
  5
5B76
102
{ACAD_REACTORS
330
5B75
102
}
330
5B75
100
AcDbXrecord
280
     1
290
     1
  0
XRECORD
  5
5B78
102
{ACAD_REACTORS
330
5B77
102
}
330
5B77
100
AcDbXrecord
280
     1
290
     1
  0
XRECORD
  5
5B7A
102
{ACAD_REACTORS
330
5B79
102
}
330
5B79
100
AcDbXrecord
280
     1
290
     1
  0
XRECORD
  5
5B7C
102
{ACAD_REACTORS
330
5B7B
102
}
330
5B7B
100
AcDbXrecord
280
     1
290
     1
  0
XRECORD
  5
5B7E
102
{ACAD_REACTORS
330
5B7D
102
}
330
5B7D
100
AcDbXrecord
280
     1
290
     1
  0
XRECORD
  5
5B80
102
{ACAD_REACTORS
330
5B7F
102
}
330
5B7F
100
AcDbXrecord
280
     1
290
     1
  0
XRECORD
  5
5B82
102
{ACAD_REACTORS
330
5B81
102
}
330
5B81
100
AcDbXrecord
280
     1
290
     1
  0
XRECORD
  5
5B84
102
{ACAD_REACTORS
330
5B83
102
}
330
5B83
100
AcDbXrecord
280
     1
290
     1
  0
XRECORD
  5
5B86
102
{ACAD_REACTORS
330
5B85
102
}
330
5B85
100
AcDbXrecord
280
     1
290
     1
  0
XRECORD
  5
5B88
102
{ACAD_REACTORS
330
5B87
102
}
330
5B87
100
AcDbXrecord
280
     1
290
     1
  0
XRECORD
  5
5B8A
102
{ACAD_REACTORS
330
5B89
102
}
330
5B89
100
AcDbXrecord
280
     1
290
     1
  0
XRECORD
  5
5B8C
102
{ACAD_REACTORS
330
5B8B
102
}
330
5B8B
100
AcDbXrecord
280
     1
290
     1
  0
SORTENTSTABLE
  5
197A
102
{ACAD_REACTORS
330
1979
102
}
330
1979
100
AcDbSortentsTable
330
1F
331
3EBC
  5
3EBC
331
5925
  5
4D81
331
440E
  5
49D4
331
49F2
  5
49C1
331
4769
  5
49D7
331
521F
  5
548D
331
4922
  5
49F1
331
49E0
  5
488A
331
4CE3
  5
5227
331
5222
  5
55AC
331
5225
  5
57D0
331
3EB0
  5
3EB0
331
4042
  5
4113
331
3EB3
  5
3EB3
331
4D83
  5
522D
331
495E
  5
49F2
331
55AD
  5
5931
331
49D4
  5
477B
331
4797
  5
49D8
331
48BA
  5
49EB
331
4D86
  5
5230
331
5929
  5
4D85
331
522B
  5
58F4
331
5931
  5
5220
331
49D7
  5
47D6
331
4D89
  5
5465
331
592C
  5
4D88
331
57D0
  5
5933
331
49DA
  5
47DA
331
522E
  5
5927
331
49DD
  5
4835
331
47D6
  5
49D9
331
548C
  5
592E
331
49ED
  5
4917
331
47D8
  5
49DB
331
47E4
  5
49E9
331
4916
  5
49F0
331
49C1
  5
4CE1
331
47DB
  5
49DE
331
49C4
  5
4172
331
490C
  5
49EF
331
498E
  5
4B00
331
3EBB
  5
3EBB
331
49F1
  5
498E
331
5927
  5
4D83
331
521E
  5
548C
331
5221
  5
55AB
331
4763
  5
49D5
331
5224
  5
55AE
331
40BA
  5
49D2
331
5843
  5
5935
331
5227
  5
5843
331
4766
  5
49D6
331
4041
  5
4112
331
4D82
  5
522B
331
55AC
  5
5930
331
49D3
  5
4778
331
4D85
  5
522F
331
5928
  5
4D84
331
49D6
  5
4797
331
4D88
  5
5376
331
522D
  5
5926
331
592B
  5
4D87
331
49D9
  5
47D8
331
49DC
  5
47E4
331
48D9
  5
49ED
331
49DF
  5
4889
331
548B
  5
592D
331
49EF
  5
495E
331
5836
  5
5934
331
5511
  5
4041
331
47DA
  5
49DD
331
403F
  5
4045
331
49C3
  5
4171
331
5231
  5
592A
331
49C6
  5
4174
331
49F0
  5
4976
331
49F3
  5
49C2
331
521D
  5
548B
331
5465
  5
592B
331
4CE1
  5
5226
331
5220
  5
5512
331
49E1
  5
488B
331
5223
  5
55AD
331
5226
  5
5836
331
55AB
  5
592F
331
4835
  5
49EA
331
4D81
  5
5228
331
49D2
  5
440E
331
3EB4
  5
3EB4
331
4D84
  5
522E
331
55AE
  5
5932
331
49D5
  5
477E
331
4D87
  5
5231
331
522C
  5
5925
331
592A
  5
4D86
331
49D8
  5
47D7
331
42F7
  5
49D3
331
522F
  5
5928
331
592D
  5
4D89
331
49DE
  5
484F
331
548A
  5
592C
331
55A5
  5
4044
331
47D7
  5
49DA
331
49EE
  5
4922
331
47D9
  5
49DC
331
5230
  5
5929
331
4976
  5
49F3
331
58F4
  5
5936
331
49C5
  5
4173
  0
SORTENTSTABLE
  5
5AD5
102
{ACAD_REACTORS
330
5AD3
102
}
330
5AD3
100
AcDbSortentsTable
330
4CC8
  0
XRECORD
  5
5C54
102
{ACAD_REACTORS
330
5C53
102
}
330
5C53
100
AcDbXrecord
280
     1
 40
4330726.0
  1
{\fArial|b1|i0|c0|p34;Holzfenster IDEAL IV78xxxx - ClassicLine\PBalkontür mit PZ\P\fArial|b0|i0|c0|p34;\H0.8x;Ausführung mit Schwelle oder Sohlbank\fArial|b1|i0|c0|p34;\H0.75x;\P\fArial|b0|i0|c0|p34;Getriebenutmitte 13.15mm\PGlasstärken 28mm bis 46mm
  1
\PDornmaß 45mm\P\PHorizontalschnitt B-B}
  0
XRECORD
  5
5C56
102
{ACAD_REACTORS
330
5C55
102
}
330
5C55
100
AcDbXrecord
280
     1
 40
293718.0
  1
{\fArial|b0|i0|c0|p34;Zeichnung ohne Gewähr; Änderungen vorbehalten}
  0
DIMASSOC
  5
547C
102
{ACAD_REACTORS
330
5472
102
}
330
5472
100
AcDbDimAssoc
330
5465
 90
        2
 70
     0
 71
     0
  1
AcDbOsnapPointRef
 72
    10
331
403F
 73
     2
 91
       52
 40
0.9553619245336053
 10
0.0
 20
0.0
 30
0.0
 75
     0
  0
DIMASSOC
  5
57E7
102
{ACAD_REACTORS
330
57DD
102
}
330
57DD
100
AcDbDimAssoc
330
57D0
 90
        3
 70
     0
 71
     0
  1
AcDbOsnapPointRef
 72
     1
331
403F
 73
     2
 91
       39
 40
1.0
 10
0.0
 20
0.0
 30
2.000000000000000E+50
 75
     0
  1
AcDbOsnapPointRef
 72
     8
331
403F
 73
     2
 91
       31
 40
0.8341909112848554
 10
0.0
 20
0.0
 30
0.0
 75
     1
  1
AcDbOsnapPointRef
 72
     1
331
403F
 73
     2
 91
       39
 40
1.0
 10
0.0
 20
0.0
 30
2.000000000000000E+50
 75
     0
  0
XRECORD
  5
5C58
102
{ACAD_REACTORS
330
5C57
102
}
330
5C57
100
AcDbXrecord
280
     1
 40
301519.0
  1
{\fArial|b1|i0|c0|p34;Für Profilvarianten s. IV78_01. Fenster_BK-Tür.dxf}
  0
XRECORD
  5
5C50
102
{ACAD_REACTORS
330
5C4F
102
}
330
5C4F
100
AcDbXrecord
280
     1
102
SHADEPLOT
 70
     0
  0
XRECORD
  5
5C52
102
{ACAD_REACTORS
330
5C51
102
}
330
5C51
100
AcDbXrecord
280
     1
102
SHADEPLOT
 70
     0
  0
LAYOUT
  5
D3
102
{ACAD_XDICTIONARY
360
2989
102
}
102
{ACAD_REACTORS
330
1A
102
}
330
1A
100
AcDbPlotSettings
  1

  2
Adobe PDF
  4
A4
  6

 40
3.174999952316281
 41
3.174999952316281
 42
3.175003051757812
 43
3.17498779296875
 44
209.9733276367186
 45
297.0318298339844
 46
2.825000047683714
 47
2.825000047683714
 48
0.0
 49
0.0
140
0.0
141
0.0
142
1.0
143
1.0
 70
   688
 72
     1
 73
     1
 74
     5
  7
Grayscale.ctb
 75
    16
147
1.0
148
0.0
149
0.0
100
AcDbLayout
  1
Classic
 70
     1
 71
     1
 10
-5.999987840652463
 20
-6.0
 11
291.0318419933318
 21
203.9733276367186
 12
0.0
 22
0.0
 32
0.0
 14
-6.004607636397848
 24
-6.003304854981195
 34
-0.0000000000112498
 15
290.9275923322271
 25
203.9765328215
 35
0.0000000000002956
146
0.0
 13
0.0
 23
0.0
 33
0.0
 16
1.0
 26
0.0
 36
0.0
 17
0.0
 27
1.0
 37
0.0
 76
     0
330
D2
331
290C
1001
ACAD_PSEXT
1000
Adobe PDF
1000
Adobe PDF Converter
1000
Eigene Dateien
1000

1070
     0
  0
LAYOUT
  5
22
102
{ACAD_XDICTIONARY
360
5C2B
102
}
102
{ACAD_REACTORS
330
1A
102
}
330
1A
100
AcDbPlotSettings
  1

  2
\\ideal2000-01\RICOH Aficio MP 161 PCL 6
  4
A4
  6

 40
5.027082920074462
 41
5.027085781097412
 42
5.027069091796875
 43
5.027069091796875
 44
209.9733276367186
 45
296.9259948730469
 46
-5.040412187576293
 47
-5.064079999923761
 48
0.0
 49
0.0
140
0.0
141
0.0
142
1.0
143
1.0
 70
  3748
 72
     1
 73
     0
 74
     2
  7
Grayscale.ctb
 75
    16
147
1.0
148
0.0
149
0.0
100
AcDbLayout
  1
Model
 70
     1
 71
     0
 10
0.0
 20
0.0
 11
12.0
 21
9.0
 12
0.0
 22
0.0
 32
0.0
 14
0.0
 24
0.0
 34
0.0
 15
0.0
 25
0.0
 35
0.0
146
0.0
 13
0.0
 23
0.0
 33
0.0
 16
1.0
 26
0.0
 36
0.0
 17
0.0
 27
1.0
 37
0.0
 76
     0
330
1F
331
EA
1001
ACAD_PSEXT
1000
\\ideal2000-01\RICOH Aficio MP 161 PCL 6
1000
RICOH Aficio MP 161 PCL 6
1000
Bei Hern Becker an JetAdmin 172.16.99.14
1000

1070
     0
  0
MATERIAL
  5
ED
102
{ACAD_XDICTIONARY
360
1E77
102
}
102
{ACAD_REACTORS
330
6A
102
}
330
6A
100
AcDbMaterial
  1
ByBlock
  0
MATERIAL
  5
EC
102
{ACAD_XDICTIONARY
360
1E75
102
}
102
{ACAD_REACTORS
330
6A
102
}
330
6A
100
AcDbMaterial
  1
ByLayer
  0
MATERIAL
  5
EE
102
{ACAD_XDICTIONARY
360
1E79
102
}
102
{ACAD_REACTORS
330
6A
102
}
330
6A
100
AcDbMaterial
  1
Global
  0
MLEADERSTYLE
  5
5B50
102
{ACAD_REACTORS
330
5B4F
102
}
330
5B4F
100
AcDbMLeaderStyle
170
     2
171
     1
172
     0
 90
        2
 40
0.0
 41
0.0
173
     1
 91
-1056964608
340
14
 92
       -2
290
     1
 42
2.0
291
     1
 43
0.36
  3
Standard
 44
4.0
300

342
11
174
     1
178
     6
175
     1
176
     0
 93
-1056964608
 45
4.0
292
     0
297
     0
 46
4.0
 94
-1056964608
 47
1.0
 49
1.0
140
1.0
293
     1
141
0.0
294
     1
177
     0
142
1.0
295
     0
296
     0
143
0.125
1001
ACAD_MLEADERVER
1070
     2
  0
MLINESTYLE
  5
18
102
{ACAD_REACTORS
330
17
102
}
330
17
100
AcDbMlineStyle
  2
STANDARD
 70
     0
  3

 62
   256
 51
90.0
 52
90.0
 71
     2
 49
0.5
 62
   256
  6
BYLAYER
 49
-0.5
 62
   256
  6
BYLAYER
  0
ACDBPLACEHOLDER
  5
F
102
{ACAD_REACTORS
330
E
102
}
330
E
  0
SCALE
  5
5B3E
102
{ACAD_REACTORS
330
5B3D
102
}
330
5B3D
100
AcDbScale
 70
     0
300
1:1
140
1.0
141
1.0
290
     1
  0
SCALE
  5
5B3F
102
{ACAD_REACTORS
330
5B3D
102
}
330
5B3D
100
AcDbScale
 70
     0
300
1:2
140
1.0
141
2.0
290
     0
  0
SCALE
  5
5B40
102
{ACAD_REACTORS
330
5B3D
102
}
330
5B3D
100
AcDbScale
 70
     0
300
1:4
140
1.0
141
4.0
290
     0
  0
SCALE
  5
5B41
102
{ACAD_REACTORS
330
5B3D
102
}
330
5B3D
100
AcDbScale
 70
     0
300
1:5
140
1.0
141
5.0
290
     0
  0
SCALE
  5
5B42
102
{ACAD_REACTORS
330
5B3D
102
}
330
5B3D
100
AcDbScale
 70
     0
300
1:8
140
1.0
141
8.0
290
     0
  0
SCALE
  5
5B43
102
{ACAD_REACTORS
330
5B3D
102
}
330
5B3D
100
AcDbScale
 70
     0
300
1:10
140
1.0
141
10.0
290
     0
  0
SCALE
  5
5B44
102
{ACAD_REACTORS
330
5B3D
102
}
330
5B3D
100
AcDbScale
 70
     0
300
1:16
140
1.0
141
16.0
290
     0
  0
SCALE
  5
5B45
102
{ACAD_REACTORS
330
5B3D
102
}
330
5B3D
100
AcDbScale
 70
     0
300
1:20
140
1.0
141
20.0
290
     0
  0
SCALE
  5
5B46
102
{ACAD_REACTORS
330
5B3D
102
}
330
5B3D
100
AcDbScale
 70
     0
300
1:30
140
1.0
141
30.0
290
     0
  0
SCALE
  5
5B47
102
{ACAD_REACTORS
330
5B3D
102
}
330
5B3D
100
AcDbScale
 70
     0
300
1:40
140
1.0
141
40.0
290
     0
  0
SCALE
  5
5B48
102
{ACAD_REACTORS
330
5B3D
102
}
330
5B3D
100
AcDbScale
 70
     0
300
1:50
140
1.0
141
50.0
290
     0
  0
SCALE
  5
5B49
102
{ACAD_REACTORS
330
5B3D
102
}
330
5B3D
100
AcDbScale
 70
     0
300
1:100
140
1.0
141
100.0
290
     0
  0
SCALE
  5
5B4A
102
{ACAD_REACTORS
330
5B3D
102
}
330
5B3D
100
AcDbScale
 70
     0
300
2:1
140
2.0
141
1.0
290
     0
  0
SCALE
  5
5B4B
102
{ACAD_REACTORS
330
5B3D
102
}
330
5B3D
100
AcDbScale
 70
     0
300
4:1
140
4.0
141
1.0
290
     0
  0
SCALE
  5
5B4C
102
{ACAD_REACTORS
330
5B3D
102
}
330
5B3D
100
AcDbScale
 70
     0
300
8:1
140
8.0
141
1.0
290
     0
  0
SCALE
  5
5B4D
102
{ACAD_REACTORS
330
5B3D
102
}
330
5B3D
100
AcDbScale
 70
     0
300
10:1
140
10.0
141
1.0
290
     0
  0
SCALE
  5
5B4E
102
{ACAD_REACTORS
330
5B3D
102
}
330
5B3D
100
AcDbScale
 70
     0
300
100:1
140
100.0
141
1.0
290
     0
  0
TABLESTYLE
  5
7F
102
{ACAD_XDICTIONARY
360
5BD7
102
}
102
{ACAD_REACTORS
330
7E
102
}
330
7E
100
AcDbTableStyle
  3
Standard
 70
     0
 71
     0
 40
1.5
 41
1.5
280
     0
281
     0
  7
Standard
140
4.5
170
     2
 62
     0
 63
     7
283
     0
274
    -2
284
     1
 64
     0
275
    -2
285
     1
 65
     0
276
    -2
286
     1
 66
     0
277
    -2
287
     1
 67
     0
278
    -2
288
     1
 68
     0
279
    -2
289
     1
 69
     0
  7
Standard
140
6.0
170
     5
 62
     0
 63
     7
283
     0
274
    -2
284
     1
 64
     0
275
    -2
285
     1
 65
     0
276
    -2
286
     1
 66
     0
277
    -2
287
     1
 67
     0
278
    -2
288
     1
 68
     0
279
    -2
289
     1
 69
     0
  7
Standard
140
4.5
170
     5
 62
     0
 63
     7
283
     0
274
    -2
284
     1
 64
     0
275
    -2
285
     1
 65
     0
276
    -2
286
     1
 66
     0
277
    -2
287
     1
 67
     0
278
    -2
288
     1
 68
     0
279
    -2
289
     1
 69
     0
  0
VISUALSTYLE
  5
F5
102
{ACAD_XDICTIONARY
360
5C39
102
}
102
{ACAD_REACTORS
330
EF
102
}
330
EF
100
AcDbVisualStyle
  2

 70
     4
 71
     0
 72
     2
 73
     1
 90
        0
 40
-0.6
 41
-30.0
 62
     5
 63
     7
 74
     1
 91
        4
 64
     7
 65
   257
 75
     1
175
     1
 42
1.0
 92
        0
 66
   257
 43
1.0
 76
     1
 77
     6
 78
     2
 67
     7
 79
     5
170
     0
171
     0
290
     0
174
     0
 93
        1
 44
0.0
173
     0
291
     0
 45
0.0
1001
ACAD
1000
AcDbSavedByObjectVersion
1070
     0
  0
VISUALSTYLE
  5
F7
102
{ACAD_XDICTIONARY
360
5C3D
102
}
102
{ACAD_REACTORS
330
EF
102
}
330
EF
100
AcDbVisualStyle
  2

 70
     6
 71
     1
 72
     2
 73
     2
 90
        0
 40
-0.6
 41
-30.0
 62
     5
 63
     7
 74
     2
 91
        2
 64
     7
 65
   257
 75
     2
175
     1
 42
40.0
 92
        0
 66
   257
 43
1.0
 76
     1
 77
     6
 78
     2
 67
     7
 79
     3
170
     0
171
     0
290
     0
174
     0
 93
        1
 44
0.0
173
     0
291
     0
 45
0.0
1001
ACAD
1000
AcDbSavedByObjectVersion
1070
     0
  0
VISUALSTYLE
  5
F6
102
{ACAD_XDICTIONARY
360
5C3B
102
}
102
{ACAD_REACTORS
330
EF
102
}
330
EF
100
AcDbVisualStyle
  2

 70
     5
 71
     0
 72
     2
 73
     1
 90
        0
 40
-0.6
 41
-30.0
 62
     5
 63
     7
 74
     1
 91
        4
 64
     7
 65
   257
 75
     1
175
     1
 42
1.0
 92
        0
 66
   257
 43
1.0
 76
     1
 77
     6
 78
     2
 67
     7
 79
     5
170
     0
171
     0
290
     0
174
     0
 93
        1
 44
0.0
173
     0
291
     0
 45
0.0
1001
ACAD
1000
AcDbSavedByObjectVersion
1070
     0
  0
VISUALSTYLE
  5
F4
102
{ACAD_XDICTIONARY
360
5C37
102
}
102
{ACAD_REACTORS
330
EF
102
}
330
EF
100
AcDbVisualStyle
  2

 70
     7
 71
     1
 72
     0
 73
     1
 90
        0
 40
-0.6
 41
-30.0
 62
     5
 63
     7
 74
     0
 91
        4
 64
     7
 65
   257
 75
     1
175
     1
 42
1.0
 92
        8
 66
     7
 43
1.0
 76
     1
 77
     6
 78
     2
 67
     7
 79
     5
170
     0
171
     0
290
     0
174
     0
 93
        1
 44
0.0
173
     0
291
     1
 45
0.0
1001
ACAD
1000
AcDbSavedByObjectVersion
1070
     0
  0
VISUALSTYLE
  5
FB
102
{ACAD_XDICTIONARY
360
5C45
102
}
102
{ACAD_REACTORS
330
EF
102
}
330
EF
100
AcDbVisualStyle
  2

 70
    12
 71
     2
 72
     2
 73
     1
 90
        0
 40
-0.6
 41
-30.0
 62
     5
 63
     7
 74
     1
 91
        4
 64
     7
 65
   257
 75
     1
175
     1
 42
1.0
 92
        8
 66
     7
 43
1.0
 76
     1
 77
     6
 78
     2
 67
     7
 79
     5
170
     0
171
     0
290
     0
174
     0
 93
        1
 44
50.0
173
     0
291
     1
 45
0.0
1001
ACAD
1000
AcDbSavedByObjectVersion
1070
     0
  0
VISUALSTYLE
  5
FF
102
{ACAD_XDICTIONARY
360
5C4D
102
}
102
{ACAD_REACTORS
330
EF
102
}
330
EF
100
AcDbVisualStyle
  2

 70
    16
 71
     2
 72
     2
 73
     3
 90
        0
 40
-0.6
 41
-30.0
 62
     5
 63
     8
 74
     1
 91
        4
 64
     7
 65
   257
 75
     1
175
     1
 42
1.0
 92
        8
 66
     8
 43
1.0
 76
     1
 77
     6
 78
     2
 67
     7
 79
     5
170
     0
171
     0
290
     0
174
     0
 93
        1
 44
0.0
173
     0
291
     1
 45
0.0
1001
ACAD
1000
AcDbSavedByObjectVersion
1070
     0
  0
VISUALSTYLE
  5
F8
102
{ACAD_XDICTIONARY
360
5C3F
102
}
102
{ACAD_REACTORS
330
EF
102
}
330
EF
100
AcDbVisualStyle
  2

 70
     9
 71
     3
 72
     2
 73
     1
 90
        0
 40
-0.6
 41
-30.0
 62
     5
 63
     7
 74
     2
 91
        2
 64
     7
 65
   257
 75
     1
175
     1
 42
40.0
 92
        8
 66
     7
 43
1.0
 76
     1
 77
     6
 78
     2
 67
     7
 79
     3
170
     0
171
     0
290
     0
174
     0
 93
        1
 44
0.0
173
     0
291
     0
 45
0.0
1001
ACAD
1000
AcDbSavedByObjectVersion
1070
     0
  0
VISUALSTYLE
  5
FA
102
{ACAD_XDICTIONARY
360
5C43
102
}
102
{ACAD_REACTORS
330
EF
102
}
330
EF
100
AcDbVisualStyle
  2

 70
    11
 71
     2
 72
     2
 73
     1
 90
        0
 40
-0.6
 41
-30.0
 62
     5
 63
     7
 74
     1
 91
        4
 64
     7
 65
   257
 75
     1
175
     1
 42
1.0
 92
        8
 66
     7
 43
1.0
 76
     1
 77
     6
 78
     2
 67
     7
 79
     5
170
     0
171
     0
290
     0
174
     0
 93
        1
 44
-50.0
173
     0
291
     1
 45
0.0
1001
ACAD
1000
AcDbSavedByObjectVersion
1070
     0
  0
VISUALSTYLE
  5
5B3C
102
{ACAD_XDICTIONARY
360
5C6B
102
}
102
{ACAD_REACTORS
330
EF
102
}
330
EF
100
AcDbVisualStyle
  2

 70
    22
 71
     2
 72
     2
 73
     0
 90
        0
 40
-0.6
 41
-30.0
 62
     5
 63
     7
 74
     1
 91
        4
 64
     7
 65
   257
 75
     1
175
     1
 42
1.0
 92
        8
 66
     7
 43
1.0
 76
     1
 77
     6
 78
     2
 67
     7
 79
     5
170
     0
171
     0
290
     0
174
     0
 93
        1
 44
0.0
173
     0
291
     1
 45
0.0
1001
ACAD
1000
AcDbSavedByObjectVersion
1070
     0
  0
VISUALSTYLE
  5
FE
102
{ACAD_XDICTIONARY
360
5C4B
102
}
102
{ACAD_REACTORS
330
EF
102
}
330
EF
100
AcDbVisualStyle
  2

 70
    15
 71
     2
 72
     2
 73
     1
 90
        0
 40
-0.6
 41
-30.0
 62
     5
 63
     7
 74
     1
 91
        4
 64
     7
 65
   257
 75
     1
175
     1
 42
1.0
 92
        8
 66
     7
 43
1.0
 76
     1
 77
     6
 78
     2
 67
     7
 79
     5
170
     0
171
     0
290
     0
174
     0
 93
        1
 44
0.0
173
     0
291
     1
 45
0.0
1001
ACAD
1000
AcDbSavedByObjectVersion
1070
     0
  0
VISUALSTYLE
  5
F0
102
{ACAD_XDICTIONARY
360
5C2F
102
}
102
{ACAD_REACTORS
330
EF
102
}
330
EF
100
AcDbVisualStyle
  2

 70
     0
 71
     2
 72
     1
 73
     1
 90
        2
 40
-0.6
 41
30.0
 62
     5
 63
     7
 74
     0
 91
        4
 64
     7
 65
   257
 75
     1
175
     1
 42
1.0
 92
        8
 66
     7
 43
1.0
 76
     1
 77
     6
 78
     2
 67
     7
 79
     5
170
     0
171
     0
290
     0
174
     0
 93
        1
 44
0.0
173
     0
291
     1
 45
0.0
1001
ACAD
1000
AcDbSavedByObjectVersion
1070
     0
  0
VISUALSTYLE
  5
F1
102
{ACAD_XDICTIONARY
360
5C31
102
}
102
{ACAD_REACTORS
330
EF
102
}
330
EF
100
AcDbVisualStyle
  2

 70
     1
 71
     2
 72
     1
 73
     1
 90
        2
 40
-0.6
 41
30.0
 62
     5
 63
     7
 74
     1
 91
        4
 64
     7
 65
   257
 75
     1
175
     1
 42
1.0
 92
        0
 66
   257
 43
1.0
 76
     1
 77
     6
 78
     2
 67
     7
 79
     5
170
     0
171
     0
290
     0
174
     0
 93
        1
 44
0.0
173
     0
291
     1
 45
0.0
1001
ACAD
1000
AcDbSavedByObjectVersion
1070
     0
  0
VISUALSTYLE
  5
F2
102
{ACAD_XDICTIONARY
360
5C33
102
}
102
{ACAD_REACTORS
330
EF
102
}
330
EF
100
AcDbVisualStyle
  2

 70
     2
 71
     2
 72
     2
 73
     1
 90
        2
 40
-0.6
 41
30.0
 62
     5
 63
     7
 74
     0
 91
        4
 64
     7
 65
   257
 75
     1
175
     1
 42
1.0
 92
        0
 66
     7
 43
1.0
 76
     1
 77
     6
 78
     2
 67
     7
 79
     5
170
     0
171
     0
290
     0
174
     0
 93
        1
 44
0.0
173
     0
291
     1
 45
0.0
1001
ACAD
1000
AcDbSavedByObjectVersion
1070
     0
  0
VISUALSTYLE
  5
F3
102
{ACAD_XDICTIONARY
360
5C35
102
}
102
{ACAD_REACTORS
330
EF
102
}
330
EF
100
AcDbVisualStyle
  2

 70
     3
 71
     2
 72
     2
 73
     1
 90
        2
 40
-0.6
 41
30.0
 62
     5
 63
     7
 74
     1
 91
        4
 64
     7
 65
   257
 75
     1
175
     1
 42
1.0
 92
        0
 66
   257
 43
1.0
 76
     1
 77
     6
 78
     2
 67
     7
 79
     5
170
     0
171
     0
290
     0
174
     0
 93
        1
 44
0.0
173
     0
291
     1
 45
0.0
1001
ACAD
1000
AcDbSavedByObjectVersion
1070
     0
  0
VISUALSTYLE
  5
5B34
102
{ACAD_XDICTIONARY
360
5C5B
102
}
102
{ACAD_REACTORS
330
EF
102
}
330
EF
100
AcDbVisualStyle
  2

 70
     6
 71
     1
 72
     2
 73
     2
 90
        0
 40
-0.6
 41
-30.0
 62
     5
 63
     7
 74
     2
 91
        2
 64
     7
 65
   257
 75
     2
175
     1
 42
40.0
 92
        0
 66
   257
 43
1.0
 76
     1
 77
     6
 78
     2
 67
     7
 79
     3
170
     0
171
     0
290
     0
174
     0
 93
        1
 44
0.0
173
     0
291
     0
 45
0.0
1001
ACAD
1000
AcDbSavedByObjectVersion
1070
     0
  0
VISUALSTYLE
  5
5B3A
102
{ACAD_XDICTIONARY
360
5C67
102
}
102
{ACAD_REACTORS
330
EF
102
}
330
EF
100
AcDbVisualStyle
  2

 70
    20
 71
     2
 72
     2
 73
     0
 90
        0
 40
-0.6
 41
-30.0
 62
     5
 63
     7
 74
     1
 91
        4
 64
     7
 65
   257
 75
     1
175
     1
 42
1.0
 92
       10
 66
     7
 43
1.0
 76
     1
 77
     6
 78
     2
 67
     7
 79
     5
170
     0
171
     0
290
     0
174
     0
 93
        1
 44
0.0
173
     0
291
     1
 45
0.0
1001
ACAD
1000
AcDbSavedByObjectVersion
1070
     0
  0
VISUALSTYLE
  5
FD
102
{ACAD_XDICTIONARY
360
5C49
102
}
102
{ACAD_REACTORS
330
EF
102
}
330
EF
100
AcDbVisualStyle
  2

 70
    14
 71
     2
 72
     2
 73
     1
 90
        0
 40
-0.6
 41
-30.0
 62
     5
 63
     7
 74
     1
 91
        4
 64
     7
 65
   257
 75
     7
175
     7
 42
1.0
 92
        8
 66
     7
 43
1.0
 76
     1
 77
     6
 78
     2
 67
     7
 79
     5
170
     0
171
     0
290
     0
174
     0
 93
        1
 44
0.0
173
     0
291
     1
 45
0.0
1001
ACAD
1000
AcDbSavedByObjectVersion
1070
     0
  0
VISUALSTYLE
  5
5B3B
102
{ACAD_XDICTIONARY
360
5C69
102
}
102
{ACAD_REACTORS
330
EF
102
}
330
EF
100
AcDbVisualStyle
  2

 70
    21
 71
     2
 72
     2
 73
     0
 90
        0
 40
-0.6
 41
-30.0
 62
     5
 63
     7
 74
     1
 91
        4
 64
     7
 65
   257
 75
     1
175
     1
 42
1.0
 92
        9
 66
     7
 43
1.0
 76
     1
 77
     6
 78
     2
 67
     7
 79
     5
170
     0
171
     0
290
     0
174
     0
 93
        1
 44
0.0
173
     0
291
     1
 45
0.0
1001
ACAD
1000
AcDbSavedByObjectVersion
1070
     0
  0
VISUALSTYLE
  5
F9
102
{ACAD_XDICTIONARY
360
5C41
102
}
102
{ACAD_REACTORS
330
EF
102
}
330
EF
100
AcDbVisualStyle
  2

 70
     8
 71
     2
 72
     2
 73
     1
 90
        0
 40
-0.6
 41
-30.0
 62
     5
 63
     7
 74
     1
 91
        0
 64
     7
 65
   257
 75
     1
175
     1
 42
1.0
 92
        8
 66
     8
 43
1.0
 76
     1
 77
     6
 78
     2
 67
     7
 79
     5
170
     0
171
     0
290
     0
174
     0
 93
       13
 44
0.0
173
     0
291
     0
 45
0.0
1001
ACAD
1000
AcDbSavedByObjectVersion
1070
     0
  0
VISUALSTYLE
  5
5B39
102
{ACAD_XDICTIONARY
360
5C65
102
}
102
{ACAD_REACTORS
330
EF
102
}
330
EF
100
AcDbVisualStyle
  2

 70
    27
 71
     2
 72
     2
 73
     1
 90
        2
 40
-0.6
 41
30.0
 62
     5
 63
     7
 74
     0
 91
        4
 64
     7
 65
   257
 75
     1
175
     1
 42
1.0
 92
        8
 66
   257
 43
1.0
 76
     1
 77
     6
 78
     2
 67
     8
 79
     3
170
     0
171
     0
290
     0
174
     0
 93
        5
 44
0.0
173
     0
291
     0
 45
0.0
1001
ACAD
1000
AcDbSavedByObjectVersion
1070
     0
  0
VISUALSTYLE
  5
5B38
102
{ACAD_XDICTIONARY
360
5C63
102
}
102
{ACAD_REACTORS
330
EF
102
}
330
EF
100
AcDbVisualStyle
  2

 70
    26
 71
     2
 72
     2
 73
     1
 90
        2
 40
-0.6
 41
30.0
 62
     5
 63
     7
 74
     1
 91
       10
 64
     7
 65
   257
 75
     2
175
     1
 42
1.0
 92
        8
 66
   257
 43
1.0
 76
     1
 77
     6
 78
     2
 67
     7
 79
     3
170
     0
171
     0
290
     0
174
     0
 93
        5
 44
0.0
173
     0
291
     0
 45
0.0
1001
ACAD
1000
AcDbSavedByObjectVersion
1070
     0
  0
VISUALSTYLE
  5
5B35
102
{ACAD_XDICTIONARY
360
5C5D
102
}
102
{ACAD_REACTORS
330
EF
102
}
330
EF
100
AcDbVisualStyle
  2

 70
    23
 71
     2
 72
     2
 73
     3
 90
        0
 40
-0.6
 41
-30.0
 62
     5
 63
     7
 74
     2
 91
        2
 64
     7
 65
     7
 75
     1
175
     1
 42
40.0
 92
        8
 66
     7
 43
1.0
 76
     1
 77
     6
 78
     2
 67
     7
 79
     3
170
     0
171
     0
290
     0
174
     0
 93
        1
 44
0.0
173
     0
291
     0
 45
0.0
1001
ACAD
1000
AcDbSavedByObjectVersion
1070
     0
  0
VISUALSTYLE
  5
5B36
102
{ACAD_XDICTIONARY
360
5C5F
102
}
102
{ACAD_REACTORS
330
EF
102
}
330
EF
100
AcDbVisualStyle
  2

 70
    24
 71
     1
 72
     2
 73
     2
 90
        0
 40
-0.6
 41
-30.0
 62
     5
 63
     7
 74
     2
 91
        2
 64
     7
 65
     7
 75
     1
175
     1
 42
40.0
 92
       11
 66
     7
 43
1.0
 76
     1
 77
     6
 78
     2
 67
     7
 79
     6
170
     0
171
     0
290
     0
174
     0
 93
        1
 44
0.0
173
     0
291
     0
 45
0.0
1001
ACAD
1000
AcDbSavedByObjectVersion
1070
     0
  0
VISUALSTYLE
  5
FC
102
{ACAD_XDICTIONARY
360
5C47
102
}
102
{ACAD_REACTORS
330
EF
102
}
330
EF
100
AcDbVisualStyle
  2

 70
    13
 71
     2
 72
     2
 73
     1
 90
        0
 40
-0.6
 41
-30.0
 62
     5
 63
     7
 74
     1
 91
        4
 64
     7
 65
   257
 75
     1
175
     1
 42
1.0
 92
       12
 66
     7
 43
1.0
 76
     1
 77
     6
 78
     2
 67
     7
 79
     5
170
     0
171
     0
290
     0
174
     0
 93
        1
 44
0.0
173
     0
291
     1
 45
0.0
1001
ACAD
1000
AcDbSavedByObjectVersion
1070
     0
  0
VISUALSTYLE
  5
5B33
102
{ACAD_XDICTIONARY
360
5C59
102
}
102
{ACAD_REACTORS
330
EF
102
}
330
EF
100
AcDbVisualStyle
  2

 70
     5
 71
     0
 72
     2
 73
     0
 90
        0
 40
-0.6
 41
-30.0
 62
     5
 63
     7
 74
     1
 91
        4
 64
     7
 65
   257
 75
     1
175
     1
 42
1.0
 92
        0
 66
   257
 43
1.0
 76
     1
 77
     6
 78
     2
 67
     7
 79
     3
170
     0
171
     0
290
     0
174
     0
 93
        1
 44
0.0
173
     0
291
     0
 45
0.0
1001
ACAD
1000
AcDbSavedByObjectVersion
1070
     0
  0
VISUALSTYLE
  5
5B37
102
{ACAD_XDICTIONARY
360
5C61
102
}
102
{ACAD_REACTORS
330
EF
102
}
330
EF
100
AcDbVisualStyle
  2

 70
    25
 71
     2
 72
     2
 73
     1
 90
        1
 40
0.5
 41
-30.0
 62
     5
 63
     7
 74
     1
 91
        0
 64
     7
 65
   257
 75
     1
175
     1
 42
1.0
 92
        8
 66
     7
 43
1.0
 76
     1
 77
     6
 78
     2
 67
     7
 79
     3
170
     0
171
     0
290
     0
174
     0
 93
       13
 44
0.0
173
     0
291
     0
 45
0.0
1001
ACAD
1000
AcDbSavedByObjectVersion
1070
     0
  0
DICTIONARYVAR
  5
5B8E
102
{ACAD_REACTORS
330
5E
102
}
330
5E
100
DictionaryVariables
280
     0
  1
1:1
  0
DICTIONARYVAR
  5
5B8D
102
{ACAD_REACTORS
330
5E
102
}
330
5E
100
DictionaryVariables
280
     0
  1
STANDARD
  0
DICTIONARYVAR
  5
84
102
{ACAD_REACTORS
330
5E
102
}
330
5E
100
DictionaryVariables
280
     0
  1
STANDARD
  0
DICTIONARYVAR
  5
5F
102
{ACAD_REACTORS
330
5E
102
}
330
5E
100
DictionaryVariables
280
     0
  1
2
  0
DICTIONARYVAR
  5
63
102
{ACAD_REACTORS
330
5E
102
}
330
5E
100
DictionaryVariables
280
     0
  1
1
  0
DICTIONARYVAR
  5
1E69
102
{ACAD_REACTORS
330
5E
102
}
330
5E
100
DictionaryVariables
280
     0
  1
0
  0
DICTIONARYVAR
  5
5C26
102
{ACAD_REACTORS
330
5E
102
}
330
5E
100
DictionaryVariables
280
     0
  1
80.000000
  0
DICTIONARYVAR
  5
5C25
102
{ACAD_REACTORS
330
5E
102
}
330
5E
100
DictionaryVariables
280
     0
  1
5.000000
  0
DICTIONARYVAR
  5
1E68
102
{ACAD_REACTORS
330
5E
102
}
330
5E
100
DictionaryVariables
280
     0
  1
127
  0
DICTIONARYVAR
  5
5C27
102
{ACAD_REACTORS
330
5E
102
}
330
5E
100
DictionaryVariables
280
     0
  1
2
  0
DICTIONARY
  5
2989
330
D3
100
AcDbDictionary
280
     1
281
     1
  3
ACAD_XREC_ROUNDTRIP
360
5C2E
  3
ADSK_XREC_LAYOUTTHUMBNAIL
360
298A
  0
DICTIONARY
  5
5C2B
330
22
100
AcDbDictionary
280
     1
281
     1
  3
ACAD_XREC_ROUNDTRIP
360
5C2C
  0
DICTIONARY
  5
1E77
330
ED
100
AcDbDictionary
280
     1
281
     1
  3
ACAD_XREC_ROUNDTRIP
360
1E78
  0
DICTIONARY
  5
1E75
330
EC
100
AcDbDictionary
280
     1
281
     1
  3
ACAD_XREC_ROUNDTRIP
360
1E76
  0
DICTIONARY
  5
1E79
330
EE
100
AcDbDictionary
280
     1
281
     1
  3
ACAD_XREC_ROUNDTRIP
360
1E7A
  0
DICTIONARY
  5
5BD7
330
7F
100
AcDbDictionary
280
     1
281
     1
  3
ACAD_ROUNDTRIP_2008_TABLESTYLE_CELLSTYLEMAP
360
5C28
  3
ACAD_XREC_ROUNDTRIP
360
5C2D
  0
DICTIONARY
  5
5C39
330
F5
100
AcDbDictionary
280
     1
281
     1
  3
ACAD_XREC_ROUNDTRIP
360
5C3A
  0
DICTIONARY
  5
5C3D
330
F7
100
AcDbDictionary
280
     1
281
     1
  3
ACAD_XREC_ROUNDTRIP
360
5C3E
  0
DICTIONARY
  5
5C3B
330
F6
100
AcDbDictionary
280
     1
281
     1
  3
ACAD_XREC_ROUNDTRIP
360
5C3C
  0
DICTIONARY
  5
5C37
330
F4
100
AcDbDictionary
280
     1
281
     1
  3
ACAD_XREC_ROUNDTRIP
360
5C38
  0
DICTIONARY
  5
5C45
330
FB
100
AcDbDictionary
280
     1
281
     1
  3
ACAD_XREC_ROUNDTRIP
360
5C46
  0
DICTIONARY
  5
5C4D
330
FF
100
AcDbDictionary
280
     1
281
     1
  3
ACAD_XREC_ROUNDTRIP
360
5C4E
  0
DICTIONARY
  5
5C3F
330
F8
100
AcDbDictionary
280
     1
281
     1
  3
ACAD_XREC_ROUNDTRIP
360
5C40
  0
DICTIONARY
  5
5C43
330
FA
100
AcDbDictionary
280
     1
281
     1
  3
ACAD_XREC_ROUNDTRIP
360
5C44
  0
DICTIONARY
  5
5C6B
330
5B3C
100
AcDbDictionary
280
     1
281
     1
  3
ACAD_XREC_ROUNDTRIP
360
5C6C
  0
DICTIONARY
  5
5C4B
330
FE
100
AcDbDictionary
280
     1
281
     1
  3
ACAD_XREC_ROUNDTRIP
360
5C4C
  0
DICTIONARY
  5
5C2F
330
F0
100
AcDbDictionary
280
     1
281
     1
  3
ACAD_XREC_ROUNDTRIP
360
5C30
  0
DICTIONARY
  5
5C31
330
F1
100
AcDbDictionary
280
     1
281
     1
  3
ACAD_XREC_ROUNDTRIP
360
5C32
  0
DICTIONARY
  5
5C33
330
F2
100
AcDbDictionary
280
     1
281
     1
  3
ACAD_XREC_ROUNDTRIP
360
5C34
  0
DICTIONARY
  5
5C35
330
F3
100
AcDbDictionary
280
     1
281
     1
  3
ACAD_XREC_ROUNDTRIP
360
5C36
  0
DICTIONARY
  5
5C5B
330
5B34
100
AcDbDictionary
280
     1
281
     1
  3
ACAD_XREC_ROUNDTRIP
360
5C5C
  0
DICTIONARY
  5
5C67
330
5B3A
100
AcDbDictionary
280
     1
281
     1
  3
ACAD_XREC_ROUNDTRIP
360
5C68
  0
DICTIONARY
  5
5C49
330
FD
100
AcDbDictionary
280
     1
281
     1
  3
ACAD_XREC_ROUNDTRIP
360
5C4A
  0
DICTIONARY
  5
5C69
330
5B3B
100
AcDbDictionary
280
     1
281
     1
  3
ACAD_XREC_ROUNDTRIP
360
5C6A
  0
DICTIONARY
  5
5C41
330
F9
100
AcDbDictionary
280
     1
281
     1
  3
ACAD_XREC_ROUNDTRIP
360
5C42
  0
DICTIONARY
  5
5C65
330
5B39
100
AcDbDictionary
280
     1
281
     1
  3
ACAD_XREC_ROUNDTRIP
360
5C66
  0
DICTIONARY
  5
5C63
330
5B38
100
AcDbDictionary
280
     1
281
     1
  3
ACAD_XREC_ROUNDTRIP
360
5C64
  0
DICTIONARY
  5
5C5D
330
5B35
100
AcDbDictionary
280
     1
281
     1
  3
ACAD_XREC_ROUNDTRIP
360
5C5E
  0
DICTIONARY
  5
5C5F
330
5B36
100
AcDbDictionary
280
     1
281
     1
  3
ACAD_XREC_ROUNDTRIP
360
5C60
  0
DICTIONARY
  5
5C47
330
FC
100
AcDbDictionary
280
     1
281
     1
  3
ACAD_XREC_ROUNDTRIP
360
5C48
  0
DICTIONARY
  5
5C59
330
5B33
100
AcDbDictionary
280
     1
281
     1
  3
ACAD_XREC_ROUNDTRIP
360
5C5A
  0
DICTIONARY
  5
5C61
330
5B37
100
AcDbDictionary
280
     1
281
     1
  3
ACAD_XREC_ROUNDTRIP
360
5C62
  0
XRECORD
  5
5C2E
102
{ACAD_REACTORS
330
2989
102
}
330
2989
100
AcDbXrecord
280
     1
102
SHADEPLOT
 70
     0
102
SHADEPLOTRESLEVEL
 70
     2
102
SHADEPLOTCUSTOMDPI
 70
   300
  0
XRECORD
  5
298A
102
{ACAD_REACTORS
330
2989
102
}
330
2989
100
AcDbXrecord
280
     1
310
28000000B40000007F00000001000800000000004C59000000000000000000000001000000000000FFFFFF0000000000FFFFFF000000000000000000000000000000000000000000000000000000000000000000330000006600000099000000CC000000FF00000000330000333300006633000099330000CC330000FF3300
310
0000660000336600006666000099660000CC660000FF66000000990000339900006699000099990000CC990000FF99000000CC000033CC000066CC000099CC0000CCCC0000FFCC000000FF000033FF000066FF000099FF0000CCFF0000FFFF000000003300330033006600330099003300CC003300FF003300003333003333
310
33006633330099333300CC333300FF33330000663300336633006666330099663300CC663300FF66330000993300339933006699330099993300CC993300FF99330000CC330033CC330066CC330099CC3300CCCC3300FFCC330000FF330033FF330066FF330099FF3300CCFF3300FFFF330000006600330066006600660099
310
006600CC006600FF00660000336600333366006633660099336600CC336600FF33660000666600336666006666660099666600CC666600FF66660000996600339966006699660099996600CC996600FF99660000CC660033CC660066CC660099CC6600CCCC6600FFCC660000FF660033FF660066FF660099FF6600CCFF6600
310
FFFF660000009900330099006600990099009900CC009900FF00990000339900333399006633990099339900CC339900FF33990000669900336699006666990099669900CC669900FF66990000999900339999006699990099999900CC999900FF99990000CC990033CC990066CC990099CC9900CCCC9900FFCC990000FF99
310
0033FF990066FF990099FF9900CCFF9900FFFF99000000CC003300CC006600CC009900CC00CC00CC00FF00CC000033CC003333CC006633CC009933CC00CC33CC00FF33CC000066CC003366CC006666CC009966CC00CC66CC00FF66CC000099CC003399CC006699CC009999CC00CC99CC00FF99CC0000CCCC0033CCCC0066CC
310
CC0099CCCC00CCCCCC00FFCCCC0000FFCC0033FFCC0066FFCC0099FFCC00CCFFCC00FFFFCC000000FF003300FF006600FF009900FF00CC00FF00FF00FF000033FF003333FF006633FF009933FF00CC33FF00FF33FF000066FF003366FF006666FF009966FF00CC66FF00FF66FF000099FF003399FF006699FF009999FF00CC
310
99FF00FF99FF0000CCFF0033CCFF0066CCFF0099CCFF00CCCCFF00FFCCFF0000FFFF0033FFFF0066FFFF0099FFFF00CCFFFF00FFFFFF00000000000D0D0D001A1A1A00282828003535350043434300505050005D5D5D006B6B6B00787878008686860093939300A1A1A100AEAEAE00BBBBBB00C9C9C900D6D6D600E4E4E400
310
F1F1F100FFFFFF0000000000000000000000000000000000000000000000000000000000000000000000000000000000E2E2E2E2E2E2E2E2E2E2E2E2E2E2E2E2E2E2E2E2E2E2E2E2E2E2E2E2E2E2E2E2E2E2E2E2E2E2E2E2E2E2E2E2E2E2E2E2E2E2E2E2E2E2E2E2E2E2E2E2E2E2E2E2E2E2E2E2E2E2E2E2E2E2E2E2E2E2E2
310
E2E2E2E2E2E2E2E2E2E2E2E2E2E2E2E2E2E2E2E2E2E2E2E2E2E2E2E2E2E2E2E2E2E2E2E2E2E2E2E2E2E2E2E2E2E2E2E2E2E2E2E2E2E2E2E2E2E2E2E2E2E2E2E2E2E2E2E2E2E2E2E2E2E2E2E2E2E2E2E2E2E2E2E2E2E2E2E2E2E2E2E2E2E2E2E2E2E2E2EFEFE2F5F5F5F5F5F5F5F5F5F5F5F5F5F5F5F5F5F5F5F5F5F5F5F5F5
310
F5F5F5F5F5F5F5F5F5F5F5F5F5F5F5F5F5F5F5F5F5F5F5F5F5F5F5F5F5F5F5F5F5F5F5F5F5F5F5F5F5F5F5F5F5F5F5F5F5F5F5F5F5F5F5F5F5F5F5F5F5F5F5F5F5F5F5F5F5F5F5F5F5F5F5F5F5F5F5F5F5F5F5F5F5F5F5F5F5F5F5F5F5F5F5F5F5F5F5F5F5F5F5F5F5F5F5F5F5F5F5F5F5F5F5F5F5F5F5F5F5F5F5F5F5F5F5
310
F5F5F5F5F5F5F5F5F5F5F5F5F5F5F5F5F5F5F5F5F5F5F5F5E2EFEFE2F5E2E2E2E2E2E2E2E2F5F5F5F5F5F5F5F5F5E2E2E2E2E2E2E2E2E2E2E2E2E2E2E2E2F5F5F5F5F5F5F5F5F5E2E2E2E2E2E2E2E2E2E2E2E2E2E2E2E2F5F5F5F5F5F5F5F5F5E2E2E2E2E2E2E2E2E2E2E2E2E2E2E2E2F5F5F5F5F5F5F5F5E2E2E2E2E2E2E2
310
E2E2E2E2E2E2E2E2E2F5F5F5F5F5F5F5F5F5E2E2E2E2E2E2E2E2E2E2E2E2E2E2E2E2F5F5F5F5F5F5F5F5F5E2E2E2E2E2E2E2E2E2E2E2E2E2E2E2E2F5F5F5F5F5F5F5F5F5E2E2E2E2E2E2E2E2F5E2EFEFE2F5E2E2E2E2E2E2E2E2E2E2E2E2E2E2E2E2E2E2E2E2E2E2E2E2E2E2E2E2E2E2E2E2E2E2E2E2E2E2E2E2E2E2E2E2E2
310
E2E2E2E2E2E2E2E2E2E2E2E2E2E2E2E2E2E2E2E2E2E2E2E2E2E2E2E2E2E2E2E2E2E2E2E2E2E2E2E2E2E2E2E2E2E2E2E2E2E2E2E2E2E2E2E2E2E2E2E2E2E2E2E2E2E2E2E2E2E2E2E2E2E2E2E2E2E2E2E2E2E2E2E2E2E2E2E2E2E2E2E2E2E2E2E2E2E2E2E2E2E2E2E2E2E2E2E2E2E2E2E2E2E2E2E2E2E2E2E2E2E2E2E2E2E2E2
310
E2E2F5E2EFEFE2F5E2E2E2E2E2E2E2E2E2E2E2E2E2E2E2E2E2E2E2E2E2E2E2E2E2E2E2E2E2E2E2E2E2E2E2E2E2E2E2E2E2E2E2E2E2E2E2E2E2E2E2E2E2E2E2E2E2E2F5F5F5F5F5F5F5F5F5F5F5F5F5F5F5F5F5F5F5F5F5F5F5F5F5F5F5F5F5F5F5F5F5F5F5F5F5F5F5F5F5F5F5F5F5F5F5F5F5F5F5F5F5F5F5F5F5F5F5F5F5
310
F5F5F5F5F5F5F5F5F5F5F5F5F5F5F5F5F5F5F5F5F5F5F5F5F5F5F5F5F5F5F5F5F5F5F5F5F5F5F5F5F5F5F5F5F5F5F5F5F5F5F5F5F5E2E2F5E2EFEFE2F5E2E2E2E2E2E2E2E2E2E2E2E2E2E2E2E2E2E2E2E2E2E2E2E2E2E2E2E2E2E2E2E2E2E2E2E2E2E2E2E2E2E2E2E2E2E2E2E2E2E2E2E2E2E2E2E2E2E2F5F5F5F5F5F5F5F5
310
F5F5F5F5F5F5F5F5F5F5F5F5F5F5F5F5F5F5F5F5F5F5F5F5F5F5F5F5F5F5F5F5F5F5F5F5F5F5F5F5F5F5F5F5F5F5F5F5F5F5F5F5F5F5F5F5F5F5F5F5F5F5F5F5F5F5F5F5F5F5F5F5F5F5F5F5F5F5F5F5F5F5F5F5F5F5F5F5F5F5F5F5F5F5F5F5F5F5F5F5F5F5F5F5F5F5E2E2F5E2EFEFE2F5E2E2F5F5F5F5F5F5F5F5F5F5F5
310
F5F5F5F5F5F5F5F5F5F5F5F5F5F5F5F5F5F5F5F5F5F5F5F5F5F5F5F5F5F5F5F5F5F5F5F5F5F5F5F5F5F5F5F5F5F5F5F5F5F5F5F5F5F5F5F5F5F5F5F5F5F5F5F5F5F5F5F5F5F5F5F5F5F5F5F5F5F5F5F5F5F5F5F5F5F5F5F5F5F5F5F5E2E2E2E2E2E2E2F5F5F5F5F5F5F5F5F5F5F5F5F5F5F5F5F5F5F5F5F5F5F5F5F5F5F5E2
310
E2E2E2E2E2E2E2E2E2E2E2E2E2E2E2E2E2E2E2E2E2E2E2E2E2E2E2E2F5F5F5F5E2E2F5E2EFEFE2F5E2E2F5F5F5F5F5F5F5F5F5F5F5F5F5F5F5F5F5F5F5F5F5F5F5F5F5F5F5F5F5F5F5F5F5F5F5F5F5F5F5F5F5F5F5F5F5F5F5F5F5F5F5F5F5F5F5F5F5F5F5F5F5F5F5F5F5F5F5F5F5F5F5F5F5F5F5F5F5F5F5F5F5F5F5F5F5
310
F5F5F5F5F5F5F5F5F5F5F5F5F5F5F5F5E2E2F5F5F5F5F5F5F5E2E2F5F5F5F5F5F5F5F5F5F5F5F5F5F5F5F5F5F5F5F5F5F5F5F5F5E2E2E2E2E2E2E2E2E2E2E2E2E2E2E2E2E2E2E2E2E2E2E2E2E2E2E2E2E2F5F5F5F5E2E2F5E2EFEFE2F5E2E2F5E2E2E2E2E2E2E2E2E2E2E2E2E2E2E2E2E2E2E2E2E2E2E2E2E2E2E2E2E2E2E2
310
E2F5F5F5F5F5F5F5F5F5F5F5F5F5F5F5F5F5F5F5F5F5F5F5F5F5F5F5F5F5F5F5F5F5F5F5F5F5F5F5F5F5F5F5F5F5F5F5F5F5F5F5F5F5F5F5F5F5F5F5F5F5F5F5F5F5F5F5E2E2F5F5F5F5F5F5F5F5F5F5E2E2F5F5F5F5F5F5F5F5F5F5F5F5F5F5F5F5F5F5F5F5F5F5F5E2E2E2E2E2E2E2E2E2E2E2E2E2E2E2E2E2E2E2E2E2E2
310
E2E2E2E2E2E2E2F5F5F5F5E2E2F5E2EFEFE2F5E2E2F5E2E2E2E2E2E2E2E2E2E2E2E2E2E2E2E2E2E2E2E2E2E2E2E2E2E2E2E2E2E2E2E2F5F5F5F5F5F5F5F5F5F5F5F5F5F5F5F5F5F5F5F5E2E2E2E2E2F5F5F5F5F5F5F5F5F5F5F5F5F5F5F5F5F5F5F5F5F5F5F5F5F5F5F5F5F5F5F5F5F5F5F5F5F5F5F5F5F5E2F5F5F5F5F5F5
310
F5F5F5F5F5F5F5E2F5F5F5F5F5F5F5F5F5F5F5F5F5F5F5F5F5F5F5F5F5F5F5E2E2E2E2E2E2E2E2E2E2E2E2E2E2E2E2E2E2E2E2E2E2E2E2E2E2E2E2E2F5F5F5F5E2E2F5E2EFEFE2F5F5E2F5F5F5F5F5F5F5F5F5F5F5F5F5F5F5F5F5F5F5F5F5F5F5F5F5F5F5F5F5F5F5F5F5F5F5F5F5F5F5F5F5F5F5F5F5F5F5F5F5F5E2E2E2
310
F5F5F5F5F5E2E2F5F5F5F5F5F5F5F5F5F5F5F5F5F5F5F5F5F5F5F5F5F5F5F5F5F5F5F5F5F5F5F5F5F5F5F5F5F5E23A3AF53A3A3A3A3A3A3AF5F5F5F5F5E2E2F5F5F5F5F5F5F5F5F5F5F5F5F5F5F5F5F5F5F5F5F5F5F5F5F5F5F5F5F5F5F5F5F5F5F5F5F5F5F5F5F5F5F5F5F5F5F5F5F5F5F5F5F5F5E2F5F5E2EFEFE2F5F5E2
310
F5F5F5F5F5F5F5F5F5F5F5F5F5F5F5F5F5F5F5F5F5F5F5F5F5F5F5F5F5F5F5F5F5F5F5F5F5F5F5F5F5F5F5F5F5F5F5F5F5E2F5F5F5F5F5F5F5F5F5F5E2F5F5F5F5F5F5F5F5F5F5F5F5F5F5F5F5F5F5F5F5F5F5F5F5F5F5F5F5F5F5F5F5F5F5F5F5E23AF53A3A3A3AF53AF5F53A3AF5F5F5F5F5E2F5F5F5F5F5F5F5F5F5F5F5
310
F5F5F5F5F5F5F5F5F5F5F5F5F5F5F5F5F5F5F5F5F5F5F5F5F5F5F5F5F5F5F5F5F5F5F5F5F5F5F5F5F5F5F5E2F5F5E2EFEFE2F5F5E2F5F5F5F5F5F5F5F5F5F5F5F5F5F5F5F5F5F5F5F5F5F5F5F5F5F5F5F5F5F5F5F5F5F5F5F5F5F5F5F5F5F5F5F5F5F5F5F5E2F5F5F5F5F5F5F5F5F5F5F5F5E2E2F5F5F5F5F5F5F5F5F5F5F5
310
F5F5F5F5F5F5F5F5F5F5F5F5F5F5F5F5F5F5F5F5F5F5F5E2F53A3A3A3AF53A3AF53AF53AF5F5F5F5F5F5E2F5F5F5F5F5F5F5F5F5F5F5F5F5F5F5F5F5F5F5F5F5F5F5F5F5F5F5F5F5F5F5F5F5F5F5F5F5F5F5F5F5F5F5F5F5F5F5F5F5F5F5F5F5E2F5F5E2EFEFE2F5F5E2F5F5F5F5F5F5F5F5F5F5F5F5F5F5F5F5F5F5F5F5F5
310
F5F5F5F5F5F5F5F5F5F5F5F5F5F5F5F5F5F5F5F5F5F5F5F5F5F5E2F5F5F5F5F5F5F5F5F5F5F5F5F5F5F5E2F5F5F5F5F5F5F5F5F5F5F5F5F5F5F5F5F5F5F5F5F5F5F5F5F5F5F5F5F5F5F5F5F5E2F5F53A3A3A3A3AF53AF53A3A3AF5F5F5F5F5E2F5F5F5F5F5F5F5F5F5F5F5F5F5F5F5F5F5F5F5F5F5F5F5F5F5F5F5F5F5F5F5
310
F5F5F5F5F5F5F5F5F5F5F5F5F5F5F5F5F5F5F5F5F5F5E2F5F5E2EFEFE2F5F5E2F5F5F5F5F5F5F5F5F5F5F5F5F5F5F5F5F5F5F5F5F5F5F5F5F5F5F5F5F5F5F5F5F5F5F5F5F5F5F5F5F5F5F5F5F5F5E2F5F5F5F5F5F5F5F5F5F5F5F5F5F5F5F5E2F5F5F5F5F5F5F5F5F5F5F5F5F5F5F5F5F5F5F5F5F5F5F5F5F5F5F5F5F5F5F5
310
F5E2F53AF53A3A3A3AF53AF53A3AF53AF5F5F5F5F5E2F5F5F5F5F5F5F5F5F5F5F5F5F5F5F5F5F5F5F5F5F5F5F5F5F5F5F5F5F5F5F5F5F5F5F5F5F5F5F5F5F5F5F5F5F5F5F5F5F5F5F5F5F5E2F5F5E2EFEFE2F5F5E2F5F5F5F5F5F5F5F5F5F5F5F5F5F5F5F5F5F5F5F5F5F5F5F5F5F5F5F5F5F5F5F5F5F5F5F5F5F5F5F5F5F5
310
F5F5F5F5E2F5F5F5F5F5F5F5F5F5F5F5F5F5F5F5F5F5E2F5F5F5F5F5F5F5F5F5F5F5F5F5F5F5F5F5F5F5F5F5F5F5F5F5F5F5F5F5F5F5E23AF53A3AF5F53A3A3A3A3AF53A3A3A3AF5F5F5E2F5F5F5F5F5F5F5F5F5F5F5F5F5F5F5F5F5F5F5F5F5F5F5F5F5F5F5F5F5F5F5F5F5F5F5F5F5F5F5F5F5F5F5F5F5F5F5F5F5F5F5F5
310
F5E2F5F5E2EFEFE2F5F5E2F5F5F5F5F5F5F5F5F5F5F5F5F5F5F5F5F5F5F5F5F5F5F5F5F5F5F5F5F5F5F5F5F5F5F5F5F5F5F5F5F5F5F5F5F5E2F5F5F5F5F53A3A3A3A3A3A3A3A3A3A3A3A3A3AF5F5F5F5F5F5F5F5F5F5F5F5F5F5F5F5F5F5F5F5F5F5F5F5F5F5F5F5F5F5F5E2F53A3A3AF5F53A3AF53AF53A3A3AF53AF5F5F5
310
E2F5F5F5F5F5F5F5F5F5F5F5F5F5F5F5F5F5F5F5F5F5F5F5F5F5F5F5F5F5F5F5F5F5F5F5F5F5F5F5F5F5E5E2E2E2E2E2E2E2E2E5F5F5E2F5F5E2EFEFE2F5F5E2F5F5F5F5F5F5F5F5F5F5F5F5F5F5F5F5F5F5F5F5F5F5F5F5F5F5F5F5F5F5F5F5F5F5F5F5F5F5F5F5F5F5F5F5F5E2F5F5F5F5F53ABEBEBEBEF53A3AF5F5F53A
310
F53AF5F5F5F5F5F5F5F5F5F5F5F5F5F5F5F5F5F5F5F5F5F5F5F5F5F5F5F5F5F5F5E2F5F53A3A3A3A3AF53AF53A3A3AF53A3AF5F5F5E2F5F5F5F5F5F5F5F5F5F5F5F5F5F5F5F5F5F5F5F5F5F5F5F5F5F5F5F5F5F5F5F5F5F5F5F5F5F5F5F5F5E5E2E2E2E2E2E2E2E5E5F5F5E2F5F5E2EFEFE2F5F5E2F5F5F5F5F5F5F5F5F5F5
310
F5F5F5F5F5F5F5F5F5F5F5F5F5F5F5F5F5F5F5F5F5F5F5F5F5F5F5F5F5F5F5F5F5F5F5E2F5F5F5F5F53ABEBEBEBEF5F53A3AF5F5F53AF53AF5F5F5F5F5F5F5F5F5F5F5F5F5F5F5F5F5F5F5F5F5F5F5F5F5F5F5F5F5F5E2F5F5F53A3A3A3A3AF53A3A3AF53A3AF53AF5F5E2F5F5F5F5F5F5F5F5F5F5F5F5F5F5F5F5F5F5F5F5
310
F5F5F5F5F5F5F5F5F5F5F5F5F5F5F5F5F5F5F5F5F5E5E2E2E2E2F5F5F5E5E5F5F5E2F5F5E2EFEFE2F5E2E2F5F5F5F5F5F5F5F5F5F5F5F5F5F5F5F5F5F5F5F5F5F5F5F5F5F5F5F5F5F5F5F5F5F5F5F5F5F5F5F5F5F5F5F5F5E2F5F5F5F5F53ABEBEBEBEF5F5F53A3AF5F5F53AE2F5F5F5F5F5F5F5F5F5F5F5F5F5F5F5F5F5F5
310
F5F5F5F5F5F5F5F5F5F5F5F5F5E2F5F5F53AF53AF53A3A3A3A3A3AF53A3AF5F5E2F5F5F5F5F5F5F5F5F5F5F5F5F5F5F5F5F5F5F5F5F5F5F5F5F5F5F5F5F5F5F5F5F5F5F5F5F5F5F5F5F5E2E5E2E2E2F5F5E5E5E2F5F5E2E2F5E2EFEFE2F5E2E2F5F5F5F5F5F5F5F5F5F5F5F5F5F5F5F5F5F5F5F5F5F5F5F5F5F5F5F5F5F5F5
310
F5F5F5F5F5F5F5F5F5F5F5F5F5F5E2F5F5F5F5F53ABEBEBEF53AF5F5F53A3AF5F5F53AF5F5F5F5F5F5F5F5F5F5F5F5F5F5F5F5F5F5F5F5F5F5F5F5F5F5F5F5F5F5F5E23AF5F5F53A3A3A3A3A3AF53A3A3A3ABEBEF5E2F5F5F5F5F5F5F5F5F5F5F5F5F5F5F5F5F5F5F5F5F5F5F5F5F5F5F5F5F5F5F5F5F5F5F5F5F5F5F5F5F5
310
E2E5F5F5F5F5E5F5E5E2F5F5E2E2F5E2EFEFE2F5E2E2F5F5F5F5F5F5F5F5F5F5F5F5F5F5F5F5F5F5F5F5F5F5F5F5F5F5F5F5F5F5F5F5F5F5F5F5F5F5F5F5F5F5F5F5F5E2F5F5F5F5F53ABEBEBE3AF53AF5F5F53A3AF5F5E2F5F5F5F5F5F5F5F5F5F5F5F5F5F5F5F5F5F5F5F5F5F5F5F5F5F5F5F5F5F5F5E2F53A3AF5F53A3A
310
3A3AF53A3AF53ABEBEBEE2F5F5F5E2E2E2F5E2E2E2E2E2F5F5F5F5F5F5F5F5F5F5F5F5F5F5F5F5F5F5F5F5F5F5F5F5F5F5F5F5F5F5E2E5F5F5F5E5F5F5E5E2F5F5E2E2F5E2EFEFE2F5E2E2F5F5F5F5F5F5F5F5F5F5F5F5F5F5F5F5F5F5F5F5F5F5F5F5F5F5F5F5F5F5F5F5F5F5F5F5F5F5F5F5F5F5F5F5F5E2F5F5F5F5F53A
310
F53AF5F53AF53AF5F5F53A3AF5E2F5F5F5F5F5F5F5F5F5F5F5F5F5F5F5F5F5F5F5F5F5F5F5F5F5F5F5F5F5F5F5F5E2F5F53AF53A3A3AF53A3AF53ABEBEBEBEE2F5F5F5E2E2E2F5E2E2E2E2E2F5F5F5F5F5F5F5F5F5F5F5F5F5F5F5F5F5F5F5F5F5F5F5F5F5F5F5F5F5F5E2E5F5F5F5E5F5F5E5E2F5F5E2E2F5E2EFEFE2F5E2
310
E2F5F5F5F5F5F5F5F5F5F5F5F5F5F5F5F5F5F5F5F5F5F5F5F5F5F5F5F5F5F5F5F5F5F5F5F5F5F5F5F5F5F5F5F5F5E2F5F5F5F5F53A3AF53AF5F53AF53AF5F5F53A3AF5F5F5F5F5F5F5F5F5F5F5F5F5F5F5F5F5F5F5F5F5F5F5F5F5F5F5F5F5F5F5F5F5E2E2F5F53A3A3A3A3A3AF53A3ABEBEE2E2F5F5F5F5E2E2F5F5E2E2F5
310
F5F5F5F5F5F5F5F5F5F5F5F5F5F5F5F5F5F5F5F5F5F5F5F5F5F5F5F5F5F5E2E2E2E2E2F5E5F5F5E2E2E2E2E2E2E2F5E2EFEFE2F5E2E2F5F5F5F5F5F5F5F5F5F5F5F5F5F5F5F5F5F5F5F5F5F5F5F5F5F5F5F5F5F5F5F5F5F5F5F5F5F5F5F5F5F5F5F5F5F5E2F5F5F5F53AF53AF53AF5F53AF53AF5F5F53AF5F5F5F5F5F5F5F5
310
F5F5F5F5F5F5F5F5F5F5F5F5F5F5F5F5F5F5F5F5F5F5F5F5F5F5F5E2F5F56F6F6F6F6F6F6F6F6F6FE2E2E2E2F5E2E2E2E2E2E2E2E2E2F5E2E2E2E2E2F5F5F5F5F5F5F5F5F5F5F5F5F5F5F5F5F5F5F5F5F5F5F5F5E2E2E2E5E5F5F5F5F5E5E2E2F5E2E2F5E2EFEFE2F5E2E2F5F5F5F5F5F5F5F5F5F5F5F5F5F5F5F5F5F5F5F5
310
F5F5F5F5F5F5F5F5F5F5F5E2F5F5F5F5F5F5F5F5F5F5F5F5E2F5E2F5F5F5F53AF5F53AF53AF5F53AF53AF5E2F5F5F5F5F5F5F5F5F5F5F5F5F5F5F5F5F5F5F5F5F5F5F5F5F5F5F5F5F5F5F5F5F5F5F5F5F5E2F56FF56F6F6F6F6F6F6F6FF5E2E2E2F5E2E2E2E2E2E2E2E2E2F5E2E2E2E2E2F5F5F5F5F5F5F5F5F5F5F5F5F5F5
310
F5F5F5F5F5F5F5F5F5F5F5E2E2E5F5F5F5F5E5E2E2F5F5E2E2F5E2EFEFE2F5E2E2F5F5F5F5F5F5F5F5F5F5F5F5F5F5F5F5F5F5F5F5F5F5F5F5F5E2E2E2E2E2E2E2E2E2E2E2E2E2E2E2E2E2E2E2E2F5F50F0F0F0F3A3A3A3A3A3A3A3A3A3A3A3AE2F5F5F5F5F5F5F5F5F5F5F5F5F5F5F5F5F5F5F5F5F5F5F5F5F5F5F5F5F5F5
310
F5F5F5F5F5F5F5F5E26FE26F6F6F6F6F6FF5F5F5F5F5E2E2E2E2E2E2E2E2E2E2E2E2E2E2E2E2F5F5F5F5F5F5F5F5F5F5F5F5F5F5F5F5F5F5F5F5F5F5F5F5F5F5E2E2E5F5F5F5F5E5E2E2F5F5E2E2F5E2EFEFE2F5E2E2F5F5F5F5F5F5F5F5F5F5F5F5F5F5F5F5F5F5F5F5F5F5F5F5F5E2E2E2E2E2E2E2F5E2E2F5E2E2E2E2E2
310
E2E2E2E2E2F5F5E2F50FF5F50F0FF5F5F5F5F5F53AE2F5F5F5F5F5F5F5F5F5F5F5F5F5F5F5F5F5F5F5F5F5F5F5F5F5F5F5F5F5F5F5F5F5F5F5F5F5F5F5F5F5F5F5F5F5F5F5F5F5F5F5F5F5E2E2E2E2E2E2E2E2E2E2E2E2E2E2E2E2F5F5F5F5F5F5F5F5F5F5F5F5F5F5F5F5F5F5F5F5F5F5F5F5F5F5E2E5E5F5F5F5F5E5E2E2
310
F5F5E2E2F5E2EFEFE2F5E2E2F5F5F5F5F5F5F5F5F5F5F5F5F5F5F5F5F5F5F5F5F5F5F5F5F5F5F5F5E2F5F5F5F5F5F5F5F5F5F5F5F5F5F5F5F5F5F5F5F5E2F5F50F0F0FF5F5F5F5F5E2F5F5F5F5F5F5F5F5F5F5F5F5F5F5F5F5F5F5F5F5F5F5F5F5F5F5F5F5F5F5F5F5F5F5F5F5F5F5F5F5F5F5F5F5F5F5F5F5F5F5F5F5F5F5
310
F5E2E2F5E2F5E2E2F5F5F5F5E2E2F5E2F5F5F5F5F5F5F5F5F5F5F5F5F5F5F5F5F5F5F5F5F5F5F5F5F5F5F5E5E2F5E5F5F5F5E5E2E2F5F5E2E2F5E2EFEFE2F5E2E2F5F5F5F5F5F5F5F5F5F5F5F5F5F5F5F5F5F5F5F5F5F5F5F5F5F5E2E2E2E2E2E2E2E2E2F5E2E2E2E2E2E2F5F5F5F5F5F5F5F5E2E2E2F50FF5F5F5E2E2F5F5
310
F5F5F5F5F5F5F5F5F5F5F5F5F5F5F5F5F5F5F5F5F5F5F5F5F5F5F5F5F5F5F5F5F5F5F5F5F5F5F5F5F5F5F5F5F5F5F5F5F5F5F5F5F5F5F5F5F5F5F5F5F5F5F5F5F5F5F5F5F5F5F5F5F5F5F5F5F5F5F5F5F5F5F5F5F5F5F5F5F5F5F5F5F5F5F5F5E2E5F5E5F5F5F5E5E2E2F5F5E2E2F5E2EFEFE2F5E2E2F5F5F5F5F5F5F5F5F5
310
F5F5F5F5F5F5F5F5F5F5F5F5F5F5F5F5F5E2E2E2E2E2E2E2E2E2F5E2E2E2E2E2E2F5F5F5F5F5F5F5F5F5F5F5E20FE2E2E2F5F5F5F5F5F5F5F5F5F5F5F518181818181818181818F5F5F5F5F5F5F5F5F5F5F5F5F5F5F5F5F5F5F5F5F5F5F5F5F5F5F5F5F5F5F5F5F5F5F5F5F5F5F5F5F5F5F5F5F5F5F5F5F5F5F5F5F5F5F5F5
310
F5F5F5F5F5F5F5F5F5F5F5F5F5F5F5F5F5F5F5F5F5F5E2E2E5E5F5F5F5E5E2E2F5F5E2E2F5E2EFEFE2F5E2E2F5F5F5F5F5F5F5F5F5F5F5F5F5F5F5F5F5F5F5F5F5F5F5F5F5F5F5F5F5E2E2F5F5F5E2F5F5F5E2F5F5F5F5F5F5F5F5F5F5F5F5F5F5F5F5F5F5F5F5F5F5F5F5F5F5F5F5F5F5F518181818181818181818F5F5F5
310
F5F5F5F5F5F5F5F5F5F5F5F5F5F5F5F5F5F5F5F5F5F5F5F5F5F5F5F5F5F5F5F5F5F5F5F5F5F5F5F5F5F5F5F5F5F5F5F5F5F5F5F5F5F5F5F5F5F5F5F5F5F5F5F5F5F5F5F5F5F5F5F5F5F5F5E2E2E5E5F5F5E5F5E2E2F5F5E2E2F5E2EFEFE2F5E2E2F5F5F5F5F5F5F5F5F5F5F5F5F5F5F5F5F5F5F5F5F5F5F5F5F5F5F5F5F5F5
310
F5F5F5F5F5F5F5F5F5F5F5F5F5F5F5F5F5F5F5F5F5F5F5F5F5F5F5F5F5F5F5F5F5F5F5F5F5F5F5F518181818F5F5F51818F5F5F5F5F5F5F5F5F5F5F5F5F5F5F5F5F5F5F5F5F5F5F5F5F5F5F5F5F5F5F5F5F5F5F5F5F5F5F5F5F5F5F5F5F5F5F5F5F5F5F5F5F5F5F5F5F5F5F5F5F5F5F5F5F5F5F5F5F5F5F5F5F5F5F5F5F5F5
310
F5E2E2F5E5F5F5E5F5E2E2F5F5E2E2F5E2EFEFE2F5E2E2F5F5F5F5F5F5F5F5F5F5F5F5F5F5F5F5F5F5F5F5F5F5F5F5F5F5F5F5F5F5F5F5F5F5F5F5F5F5F5F5F5F5F5F5F5F5F5F5F5F5BEF5F5BEF5F5F5F5F5F5F5F5F5F5F5F5F5F5F5F5181818181818181818181818181818F51818F5F5F5F5F5F5F5F5F5F5F5F5F5F5F5F5
310
F5F5F5F5F5F5F5F5F5F5F5F5F5F5F5F5F5F5F5F5F5F5F5F5F5F5F5F5F5F5F5F5F5F5F5F5F5F5F5F5F5F5F5F5F5F5F5F5F5F5F5F5F5F5E2E2F5F5E5F5E5F5E2E2F5F5E2E2F5E2EFEFE2F5E2E2F5F5F5F5F5F5F5F5F5F5F5F5F5F5F5F5F5F5F5F5F5F5F5F5F5F5F5F5F5F5F5F5F5F5F5F5F5F5F5F5F5F5F5F5F5F5F5F5F5F5F5
310
BEBEBEBEF5F5F5F5F5F5F5F5F5F5F5F5F5F5F5181818181818181818181818181818181818F5F5F5F5F5F5F5F5F5F5F5F5F5F53A3A3A3A3A3A3A3A3A3AF5F5F5F5F5F5F5F5F5F5F5F5F5F5F5F5F5F5F5F5F5F5F5F5F5F5F5F5F5F5F5F5F5F5F5F5F5F5F5F5F5F5F5F5F5F5E2E2F5F5E5E5E5F5E2E2F5F5E2E2F5E2EFEFE2F5
310
F5E2F5F5F5F5F5F5F5F5F5F5F5F5F5F5F5F5F5F5F5F5F5F5F5F5F5F5F5F5F5F5F5F5F5F5F5F5F5F5F5F5F5F5F5F5F5F5F5F5F5F5F5BEBEBEBEBEF5F5F5F5F5F5F5F5F5F5F5F5F5F5F5F5F5F5F5F5F5F5F5F5F5F5F5F5F5F5F5F5F5F5F5F5F5F5F5F5F5F5F5F5F53A3A3AF53A3AF53A3AF53A3AF5F5F5F5F5F5E2F5F5F5F5F5
310
F5F5F5F5F5F5F5F5F5F5F5F5F5F5F5F5F5F5F5F5F5F5F5F5F5F5F5F5F5F5F5F5F5E2E2F5F5E5F5E5F5E2E2F5F5E2F5F5E2EFEFE2F5F5E2F5F5F5F5F5F5F5F5F5F5F5F5F5F5F5F5F5F5F5F5F5F5F5F5F5F5F5F5F5F5F5F5F5F5F5F5F5F5F5F5F5F5F5F5F5F5F5F5F5F5F5F5BEBE3A3A3A3A3A3A3A3A3A3A3ABEBEBE3A3A3A3A
310
3A3A3A3A3A3A3A3A3A3A3A3A3A3A3A3A3A3A3A3A3A3A3A3A3A3A3A3A3A3A3AF53AF5BEBEBE3A3AF53AF5F5F5F5F5F5E2F5F5F5F5F5F5F5F5F5F5F5F5F5F5F5F5F5F5F5F5F5F5F5F5F5F5F5F5F5F5F5F5F5F5F5F5F5F5E2E2F5F5E5F5E5E5E2E2F5F5E2F5F5E2EFEFE2F5F5E2F5F5F5F5F5F5F5F5F5F5F5F5F5F5F5F5F5F5F5
310
F5F5F5F5F5F5F5F5F5F5F5F5F5F5F5F5F5F5F5F5F5F5F5F5F5F5F5F5F5F5F5F53AF53AF5F5F53AF53AF5F53AF53ABEBEF53A3AF5F5F53AF53AF5F53AF53AF5F5F53AF53AF5F53AF53AF5F53AF53AF5F5F53AF53A3A3A3ABEBEBEF53AF53A3AF5F5F5F5F5E2F5F5F5F5F5F5F5F5F5F5F5F5F5F5F5F5F5F5F5F5F5F5F5F5F5F5
310
F5F5F5F5F5F5F5F5F5F5F5F5E2E2F5F5F5E5F5E5E2E2F5F5E2F5F5E2EFEFE2F5F5E2F5F5F5F5F5F5F5F5F5F5F5F5F5F5F5F5F5F5F5F5F5F5F5F5F5F5F5F5F5F5F5F5F5F5F5F5F5F5F5F5F5F5F5F5F5F5F5F5F5F5F53ABEBEBEBEF5F53AF53AF5F53AF53ABEF5F53A3AF5F5F53AF53AF5F53AF53AF5F5F53AF53AF5F53AF53A
310
F5F53AF53AF5F5F53AF53A3A3ABEBEBE3AF53AF53AF5F5F5F5F5F5F5F5F5F5F5F5F5F5F5F5F5F5F5F5F5F5F5F5F5F5F5F5F5F5F5F5F5F5F5F5F5F5F5F5F5F5F5F5E2E2E2E2E2E5E2E2E5E2F5F5E2F5F5E2EFEFE2F5F5E2F5F5F5F5F5F5F5F5F5F5F5F5F5F5F5F5F5F5F5F5F5F5F5F5F5F5F5F5BEF5F5F5F5F5F5F5F5F5F5F5
310
F5F5F5F5F5F5F5F5F5F5BE3ABEBEBEBEBEF5F53A3AF5F5F53AF5BEF5F5F53A3AF5F5F53AF53AF5F53AF53AF5F5F53AF53AF5F53AF53AF5F53AF53AF5F5F53A3A3AF5BEBEBE3A3AF53A3AF5F5F5F5F5E2F5F5F5F5F5F5F5F5F5F5F5F5F5F5F5F5F5F5F5F5F5F5F5F5F5F5F5F5F5F5F5F5F5F5F5F5F5F5E2E2E2E2E2E5E2E2E2
310
E5F5F5E2F5F5E2EFEFE2F5F5E2F5F5F5F5F5F5F5F5F5F5F5F5F5F5F5F5F5F5F5F5F5F5F5F5F5F5F5F5BEBEBEBEBEBEBEBEBEBEBEBEBEBEBEBEBEBEBEBEBEBEBEBEBEBEBEBEBEF5F5F53A3AF5F5BEBEBE3AF5F5F53A3AF5F5F53AF53AF5F53AF53AF5F5F53AF53AF5F53AF53AF5F53AF53AF5F5F53A3A3ABEBEBEF53A3AF53A
310
BEF5F5F5F5E2F5F5F5F5F5F5F5F5F5F5F5F5F5F5F5F5F5F5F5F5F5F5F5F5F5F5F5F5F5F5F5F5F5F5F5F5F5F5E2E2E2E2E2E2E2E2E2E2F5F5E2F5F5E2EFEFE2F5F5E2F5F5F5F5F5F5F5F5F5F5F5F5F5F5F5F5F5F5F5F5F5F5F5F5F5F5F5F5BEBEF5F5F5F5F5F5F5F5F5BEBEF5F5F5F5F5F5F5F5F5F5BE3ABEBEBE3A3AF5F5F5
310
3A3AF5BEBEBEF53AF5F5F53A3AF5F5F53AF53AF5F53AF53AF5F5F53AF53AF5F53AF53AF5F53AF53A3A3A3A3A3ABEBEBE3AF53A3A3ABEF5F5F5F5E2F5F5F5F5F5F5F5F5F5F5F5F5F5F5F5F5F5F5F5F5F5F5F5F5F5F5F5F5F5F5F5F5F5F5F5F5F5F5F5F5F5F5F5F5F5F5F5F5F5F5E2F5F5E2EFEFE2F5F5E2F5F5F5F5F5F5F5F5
310
F5F5F5F5F5F5F5F5F5F5F5F5F5F5F5F5F5F5F5F5F5F5F5F5F5F5F5F5F5F5F5BEBEF5F5F5F5F5F5F5F5F5F53AF5BEBEF5F53A3AF5F53AF53ABEBEBE3A3AF5F5F53AF53AF5F53AF53AF5F5F53AF53AF5F53AF53AF5F53AF53AF5F5F53A3AF5F53A3A3A3A3A3A3A3A3ABEBEBEBEF5F5F5E2F5F5F5F5F5F5F5F5F5F5F5F5F5F5F5
310
F5F5F5F5F5F5F5F5F5F5F5F5F5F5F5F5F5F5F5F5F5F5F5F5F5F5F5F5F5F5F5F5F5F5F5E2F5F5E2EFEFE2F5E2E2F5F5F5F5F5F5F5F5F5F5F5F5F5F5F5F5F5F5F5F5F5F5F5F5F5F5F5F5F5F5F5F5F5F5F5F5F5F5F5F5F5F5F5F5F5F5F5F5F5F5F5C3C3C3C3C3C3C3C3C33AF53AF5BEBEBEF53A3AF5F5F53AF53AF5F53AF53AF5
310
F5F53AF53AF5F53AF53AF5F53AF53AF5F5F53AF5F5F5F5F56F6F6F6F6F6F6F6F6F6F6F6F6F6FF5F5F5F5F5F5F5F5F5F5F5F5F5F5F5F5F5F5F5F5F5F5F5F5F5F5F5F5F5F5F5F5F5F5F5F5F5F5F5F5F5F5F5F5F5F5F5F5F5F5E2E2F5E2EFEFE2F5E2E2F5F5F5F5F5F5F5F5F5F5F5F5F5F5F5F5F5F5F5F5F5F5F5F5F5F5F5F5F5
310
F5F5F5F5F5F5F5F5F5F5F5F5F5F5F5F5F5F5F5F5F5F5F5C3F5F5F5C3C3C3C33AF5F53AF5F5BEF5F53A3AF5F5F53AF53AF5F53AF53AF5F5F53AF53AF5F53AF53AF5F53AF53AF5F53A3A3A6F6F6F6F6F6F6F6F6F6F6F6F6F6F6F6F6FF5F5F5F5F5F5F5F5F5F5F5F5F5F5F5F5F5F5F5F5F5F5F5F5F5F5F5F5F5F5F5F5F5F5F5F5
310
F5F5F5F5F5F5F5F5F5F5F5F5F5F5E2E2F5E2EFEFE2F5E2E2F5F5F5F5F5F5F5F5F5F5F5F5F5F5F5F5F5F5F5F5F5F5F5F5F5F5F5F5F5F5F5F5F5BEF5F5F5F5F5F5F5F5F5F5F5F5F5F5F5F5F5C3C3C3C3C3C3C3F5F53A3AF5F53AF5BEBEF5F53A3AF5F5F53AF53AF5F53AF53AF5F5F53AF53AF5F53AF53AF5F53AF53AF5F5F53A
310
6FF5F56F6F6F6F6F6F6F6F6F6F6F6F6F6FF5F5F5F5F5F5F5F5F5F5F5F5F5F5F5F5F5F5F5F5F5F5F5F5F5F5F5F5F5F5F5F5F5F5F5F5F5F5F5F5F5F5F5F5F5F5F5F5F5F5E2E2F5E2EFEFE2F5E2E2F5F5F5F5F5F5F5F5F5F5F5F5F5F5F5F5F5F5F5F5F5F5F5F5F5F5F5F5F5F50F0FBEBE0F0F0F0F0F0F0F0F0F0F0F0F0F0F0F0F
310
0F0F0F0F0FC3C3C33A3A3A3A3AF5F5BEBE3AF5F5F53A3AF5F5F53AF53AF5F53AF53AF5F5F53AF53AF5F53AF53AF5F53AF53AF5F5F56FF5F56F6F6F6F6F6F6F6F6F6F6F6F6F6FF5F5F5F5F5F5F5F5F5F5F5F5F5F5F5F5F5F5F5F5F5F5F5F5F5F5F5F5F5F5F5F5F5F5F5F5F5F5E2E2E2E2E2E2E2E2E2E2F5F5E2E2F5E2EFEFE2
310
F5E2E2F5F5F5F5F5F5F5F5F5F5F5F5F5F5F5F5F5F5F5F5F5F5F5F5F5F5F5F5F50F0FBEBE0FF50FF5F50FF50FF5F50FF50FF5F5F50FF50FF5F50FF5F5F5F5F5F53AF53AF5BE3AF53AF5F5F53A3AF5F5F53AF53AF5F53AF53AF5F5F53AF53AF5F53AF53AF5F53AF53AF5F56FF5F56FF5F5F5F5F56FF5F5F5F5F5F5E2F5F5F5F5
310
F5F5F5F5F5F5F5F5F5F5F5F5F5F5F5F5F5F5F5F5F5F5F5F5F5F5F5F5F5F5F5F5F5F5E2E2E2E2E2E2E2E2E2E2F5F5E2E2F5E2EFEFE2F5E2E2F5F5F5F5F5F5F5F5F5F5F5F5F5F5F5F5F5F5F5F5F5F5F5F5F5F5F5F5F50FF5F5BEF50FF5F50FF50FF5F50FF50FF5F5F50FF50FF5F50F0FF5F5F5F5F5F53A3A3A3A3A3A3A3A3A3A
310
3A3A3A3A3A3A3A3A3A3A3A3A3A3A3A3A3A3A3A3A3A3A3A3A3A3A3A3A3A3A3A3A6FF5F56FF5F5F5F5F56FF5F5F5F5F5F5E2F5F5F5F5F5F5F5F5F5F5F5F5F5F5F5F5F5F5F5F5F5F5F5F5F5F5F5F5F5F5F5F5F5F5F5F5F5F5E2E2E2E2E2F5F5F5E2E2F5F5E2E2F5E2EFEFE2F5E2E2F5F5F5F5F5F5F5F5F5F5F5F5F5F5F5F5F5F5
310
F5F5F5F5F5F5F5F5F5F5F50FF50FBE0FF5F50FF50FF5F50FF50FF5F5F50FF50FF5F50FF50FF5F5F5F5F5F53A3AE9E9E9E9E9E9E9E9E9E9E9E9E9E9E9E9E9E9E9E9E9E9E9E9E9E9E9E9E9E9E9E9E9E9E9E9F5F53AF56F6F6F6FF5F5F5F5F56FF5F5F56F6FF5E2F5F5F5F5F5F5F5F5F5F5F5F5F5F5F5F5F5F5F5F5F5F5F5F5F5
310
F5F5F5F5F5F5F5F5F5F5F5F5F5E2E2E2E2E2F5F5E2E2E2F5F5E2E2F5E2EFEFE2F5E2E2F5F5F5F5F5F5F5F5F5F5F5F5F5F5F5F5F5F5F5F5F5F5F5F5F5F5F5F5F50F0FF5BEF5F50FF50FF5F50FF50FF5F5F50FF50FF5F50FF50F0FF5F5F5F5F5F5F5F5ECECECEC3AECECECECEC3AECECECECECF5ECECECECECF5ECECECECEC3A
310
ECECECECEC3AECECECECEC6F6F6F6FF5F5F5F5F56FF5F5F56F6FF5F5F5F5F5F5F5F5F5F5F5F5F5F5F5F5F5F5F5F5F5F5F5F5F5F5F5F5F5F5F5F5F5F5F5F5F5F5F5F5E2E2F5F5F5F5E2F5E2E2F5F5E2E2F5E2EFEFE2F5E2E2F5F5F5F5F5F5F5F5F5F5F5F5F5F5F5F5F5F5F5F5F5F5F5F5F5F5F5F5F50FF50FBEF50FF50FF5F5
310
0FF50FF5F5F50FF50FF5F50FF50FF50FF5F5F5F5F5F5F5F5F5F5F5F5F5F53AF5F53AF53AF5F53AF53AF5F5F53AF53AF5F53AF53AF5F5F53AF53AF5E93AF53AF56F6F6F6FF5F5F5F5F56FF5F5F56FF5F5E2F5F5F5F5F5F5F5F5F5F5F5F5F5F5F5F5F5F5F5F5F5F5F5F5F5F5F5F5F5F5F5F5F5F5F5F5F5F5E2E2F5F5F5E2F5F5
310
E2E2F5F5E2E2F5E2EFEFE2F5E2E2F5F5F5F5F5F5F5F5F5F5F5F5F5F5F5F5F5F5F5F5F5F5F5F5F5F5F5F5F50FBEBEBE0FF5F50FF5F50FF50FF5F50FF50FF5F50FF50FF5F50FF5F5F5F5F5F5F5F5F5F5F5F5F5F53AF53AF53AF5F53AF53AF5F5F53AF53AF5F53AF53AF5F5F53A3A3AF5F5E9F53AF5F56F6F6F6FF5F5F5F5F56F
310
F5F5F56F6FF5E2F5F5F5F5F5F5F5F5F5F5F5F5F5F5F5F5F5F5F5F5F5F5F5F5F5F5F5F5F5F5F5F5F5F5F5F5F5F5E2E2F5F5F5E2F5F5E2E2F5F5E2E2F5E2EFEFE2F5E2E2F5F5F5F5F5F5F5F5F5F5F5F5F5F5F5F5F5F5F5F5F5F5F5F5F5F5F5F5F50FBEBEBEF5F50FF5F50FF50FF5F50FF50FF5F5F50F0FF5F5BE0FF5F5F5F5F5
310
F5BEF5F5F5BEF5F5F53A3AF53AF5F53AF53AF5F5F53AF53AF5F53AF53AF5F5F53A3AF5F5F53AE93AF5F53A6F6F6F6FF5F5F5F5F56FF5F5F56F6FF5E2F5F5F5F5F5F5F5F5F5F5F5F5F5F5F5F5F5F5F5F5F5F5F5F5F5F5F5F5F5F5F5F5F5F5F5F5E2E2E2E2E2F5E2F5F5E2E2E2E2E2E2E2F5E2EFEFE2F5E2E2F5F5F5F5F5F5F5
310
F5F5F5F5F5F5F5F5F5F5F5F5F5F5F5F5F5F5F5F5F5F50FF5BEBEF50FF5F50FF50FF5F50FF50FF5F5F50FF50FF5F50F0FBEBEBEBEBEBEBEBEBEBEBEBEBEF53AF53AF5F5F53A3AF5F5F53ABEBEF5BEBEF5BEF5BEF53A3AF5F5F53AF5E9F5F53AF56F6F6F6FF5F5F5F5F56FF5F5F56F6FF5E2F5F5F5F5F5F5F5F5F5F5F5F5F5F5
310
F5F5F5F5F5F5F5F5F5F5F5F5F5F5F5F5F5F5F5F5F5F5F5E2E2E2E2E2F5F5F5F5E2E2E2F5E2E2F5E2EFEFE2F5E2E2F5F5F5F5F5F5F5F5F5F5F5F5F5F5F5F5F5F5F5F5F5F5F5F5F5F5F5F5F50FBEBEBE0FF5F50FF50FF5F50FF50FF5F5F50FF50FF5F50F0F0FF5F5BEBEBEF5F5F5BEBEF5F5F5F53A3AF5F5F53A3AF5F5F53AF5
310
BEBEBEBEBEF5BEBEBE3A3AF5F5F53AF53AE9F53AF53A6F6F6F6FF5F5F5F5F56FF5F5F56F6FF5E2F5F5F5F5F5F5F5F5F5F5F5F5F5F5F5F5F5F5F5F5F5F5F5F5F5F5F5F5F5F5F5F5F5F5F5F5F5E2E2E2E2F5F5F5F5E2E2E2E2F5E2E2F5E2EFEFE2F5E2E2F5F5F5F5F5F5F5F5F5F5F5F5F5F5F5F5F5F5F5F5F5F5F5F5F5F5F5F5
310
F50F0FF5BEF5F50FF50FF5F50FF50FF5F5F50FF50FF5F50FF50F0FF5F5BEBEF5F5F5F5F5BEF5F5F5F53AF5F5F53A3AF5F5F53AF5BEBEBEBEBEF5BEBEBEBE3AF5F5F53AF53AF5E93AF53AF56F6F6F6F6F6F6F6F6F6F6F6F6F6F6F6F6FF5F5F5F5F5F5F5F5F5F5F5F5F5F5F5F5F5F5F5F5F5F5F5F5F5F5F5F5F5F5F5F5F5F5F5
310
F5F5F5E2E2E2F5F5F5F5E2E2E2F5F5E2E2F5E2EFEFE2F5E2E2F5F5F5F5F5F5F5F5F5F5F5F5F5F5F5F5F5F5F5F5F5F5F5F5F5F5F5F5F50FF50FBEF50FF50FF5F50FF50FF5F5F50FF50FF5F50FF50FF50FF5F5F5F5F5F5F5F5F5F5F5F5F5F53AF5F53A3AF5F5F53AF53ABEBEBEBEBEF5BEBEBEBEF5F5F53AF53AF5F5E9F53AF5
310
F56F6FF56F6F6F6F6F6F6F6F6F6F6F6F6F6FF5F5F5F5F5F5F5F5F5F5F5F5F5F5F5F5F5F5F5F5F5F5F5F5F5F5F5F5F5F5F5F5F5F5F5F5F5F5E2E2E2F5F5F5F5E2E2E2F5F5E2E2F5E2EFEFE2F5E2E2F5F5F5F5F5F5F5F5F5F5F5F5F5F5F5F5F5F5F5F5F5F5F5F5F5F5F5F5F50F0F0FBE0F0F0F0F0F0F0F0F0F0F0F0F0F0F0F0F
310
0F0F0F0F0F0FF5F5F5F5F5F5F5F53A3A3A3A3A3A3AF53A3AF5F5F53AF53AF5F53AF53AF5F5F53A3AF5F5F53AF53AF5F53AE93AF5F5F56F6F6F6F6F6F6F6F6F6F6F6F6F6F6F6F6FF5F5F5F5F5F5F5F5F5F5F5F5F5F5F5F5F5F5F5F5F5F5F5F5F5F5F5F5F5F5F5F5F5F5F5F5F5F5E2E2E2F5F5F5F5E2E2E2F5F5E2E2F5E2EFEF
310
E2F5F5E2F5F5F5F5F5F5F5F5F5F5F5F5F5F5F5F5F5F5F5F5F5F5F5F5F5F5F5F5F50FF50FBE0FF5F50FF50FF5F5F50F0FF5F5F50FF50FF5F50FF50FF5F5F5F5F5F53A3AE9E9E9E9E9E9E9E9E9E9E9E9E9E9E9E9E9E9E9E9E9E9E9E9E9E9E9E9E9E9E9E9E9E9E9E9F5F5F53A6F6F6F6FF5F5F5F5F56FF5F5F5F5F5F5E2F5F5F5
310
F5F5F5F5F5F5F5F5F5F5F5F5F5F5F5F5F5F5F5F5F5F5F5F5F5F5F5F5F5F5F5F5F5F5F5E2E2F5E2F5F5F5E2E2E2F5F5E2F5F5E2EFEFE2F5F5E2F5F5F5F5F5F5F5F5F5F5F5F5F5F5F5F5F5F5F5F5F5F5F5F5F5F5F5F5F50F0F0FBEBE0FECECECEC0FECECECECECF5ECECECECECF5ECEC0FF5F5F5F5F5F53A3A3A3A3A3A3A3A3A
310
3A3A3A3A3A3A3A3A3A3A3A3A3A3A3A3A3A3A3A3A3A3A3A3A3A3A3A3A3A3A3A3A3A6F6F6F6FF5F5F5F5F56FF5F5F5F5F5F5E2F5F5F5F5F5F5F5F5F5F5F5F5F5F5F5F5F5F5F5F5F5F5F5F5F5F5F5F5F5F5F5F5F5F5F5F5F5F5E2E2E2E2F5F5F5E2E2E2F5F5E2F5F5E2EFEFE2F5F5E2F5F5F5F5F5F5F5F5F5F5F5F5F5F5F5F5F5
310
F5F5F5F5F5F5F5F5F5F5F5F5F5F5BEBEF50FF5F5F50FF50FF5F5F50F0FF5F5F50FF50FF5F50FF5F5F5F5F5F53AF5F53AF53AF5F53AF53AF5F5F53AF53AF5F53AF53AF5F5F53A3AF5F5F53AF53AF5F53AF53AF5F5F53A6F6F6F6FF5F5F5F5F56FF5F5F5F5F5F5E2F5F5F5F5F5F5F5F5F5F5F5F5F5F5F5F5F5F5F5F5F5F5F5F5
310
F5F5F5F5F5F5F5F5F5F5F5F5F5F5E2E2E2E2F5F5E2F5E2E2F5F5E2F5F5E2EFEFE2F5F5E2F5F5F5F5F5F5F5F5F5F5F5F5F5F5F5F5F5F5F5F5F5F5F5F5F5F5F5F5F5F5F5F5BEF50F0FF5F5F50FF50FF5F5F50F0FF5F5F50FF50FF50FF5F5F5F5F5F53AF5F5F53AF53AF5F53AF53AF5F5F53AF53AF5F53AF53AF5F5F53A3AF5F5
310
F53AF53AF5F53AF53AF5F5F56F6F6F6FF5F5F5F5F56FF5F5F5F5F5F5F5F5F5F5F5F5F5F5F5F5F5F5F5F5F5F5F5F5F5F5F5F5F5F5F5F5F5F5F5F5F5F5F5F5F5F5F5F5F5E2E2F5E2F5F5E2F5E2E2F5F5E2F5F5E2EFEFE2F5F5E2F5F5F5F5F5F5F5F5F5F5F5F5F5F5F5F5F5F5F5F5F5F5F5F5F5F5F5F5F5F5F5F5BEF50F0F0FF5
310
F5F50FF50FF5F5F50F0FF5F5F50FF50F0FF5F5F5F5F5F53A3AF5F5F53AF53AF5F53AF53AF5F5F53AF53AF5F53AF53AF5F5F53A3AF5F5F53AF53AF5F53AF53AF5F56F6F6F6FF5F5F5F5F56FF5F5F5F5F5F5E2F5F5F5F5F5F5F5F5F5F5F5F5F5F5F5F5F5F5F5F5F5F5F5F5F5F5F5F5F5F5F5F5F5F5F5F5F5F5E2E2F5F5E2F5E2
310
F5E2E2F5F5E2F5F5E2EFEFE2F5F5E2F5F5F5F5F5F5F5F5F5F5F5F5F5F5F5F5F5F5F5F5F5F5F5F5F5F5F5F5F5F5F5F5BEF50FF50F0FF5F5F50FF50FF5F50FF50FF5F5F50FF50FF5F5F5F5F5F5ECECECECECECECF5ECECECECEC3AECECECECEC3AECECECECECF5ECECEC3AECECECECEC3AECECECECECEC6F6F6F6FF5F5F5F5F5
310
6FF5F5F5F5F5F5E2F5F5F5F5F5F5F5F5F5F5F5F5F5F5F5F5F5F5F5F5F5F5F5F5F5F5F5F5F5F5F5F5F5F5F5F5F5F5E2E2F5F5E2E2E2F5E2E2F5F5E2F5F5E2EFEFE2F5F5E2F5F5F5F5F5F5F5F5F5F5F5F5F5F5F5F5F5F5F5F5F5F5F5F5F5F5F5F5F5F5BEBEBEF50FF5F50F0F0FF5F50FF50FF5F50FF50FF5F5F50F0FF5F5F5F5
310
F5F53A3AF53A3AF5F53AF53AF5F53AF53AF5F5F53AF53AF5F53AF53AF5F5F53A3AF5F5F53AF53AF5F53A3AF56F6F6F6FF5F5F5F5F56FF5F5F5F5F5F5E2F5F5F5F5F5F5F5F5F5F5F5F5F5F5F5F5F5F5F5F5F5F5F5F5F5F5F5F5F5F5F5F5F5F5F5F5F5F5E2E2F5F5E2E2E2F5E2E2F5F5E2F5F5E2EFEFE2F5F5E2F5F5F5F5F5F5
310
F5F5F5F5F5F5F5F5F5F5F5F5F5F5F5F5F5F5F5F5F5F5F5F5BEBEBEF50FF5F5F50FF50FF5F50FF50FF5F50FF50FF5F5F50FF5F5F5F5F5F53AF53A3AF53AF5F53AF53AF5F53AF53AF5F5F53AF53AF5F53AF53AF5F53AF53AF5F5F53AF53AF5F53AF56FF5F56FF5F5F5F5F56FF5F5F5F5F5F5E2F5F5F5F5F5F5F5F5F5F5F5F5F5
310
F5F5F5F5F5F5F5F5F5F5F5F5F5F5F5F5F5F5F5F5F5F5F5F5F5E2E2F5F5E2F5E2F5E2E2F5F5E2F5F5E2EFEFE2F5F5E2F5F5F5F5F5F5F5F5F5F5F5F5F5F5F5F5F5F5F5F5F5F5F5F5F5F5F5F5F5F5BEBEBEF50F0FF5F50FF5F50FF5F50FF50FF5F50FF50FF5F50FF5F5F5F5F5F5F5C3C3C3C3C3C3C33A3AF53AF5F53AF53AF5F5
310
F53AF53AF5F53AF53AF5F53AF53AF5F5F53AF53AF53AF56FF5F56FF5F5F5F5F56FF5F5F5F5F5F5E2F5F5F5F5F5F5F5F5F5F5F5F5F5F5F5F5F5F5F5F5F5F5F5F5F5F5F5F5F5F5F5F5F5F5F5F5F5F5E2E2F5F5E2E2F5E2E2E2F5F5E2F5F5E2EFEFE2F5E2E2F5F5F5F5F5F5F5F5F5F5F5F5F5F5F5F5F5F5F5F5F5F5F5F5F5F5F5
310
F5F5F5BEBEBEF50FF50FF5F50FF5F50FF5F50FF50FF5F50FF50FF50FF5F5F5F5F5F5F5C3C3C3C3C3C3C3C3C3C3C3C33AF53AF53AF5F5F53AF53AF5F53AF53AF5F53AF53AF5F5F53AF53A3AF56FF5F56FF5F5F5F5F56FF5F5F5F5F5F5F5F5F5F5F5F5F5F5F5F5F5F5F5F5F5F5F5F5F5F5F5F5F5F5F5F5F5F5F5F5F5F5F5F5F5
310
F5F5F5F5E2E2F5F5F5E2F5F5E2E2F5F5E2E2F5E2EFEFE2F5E2E2F5F5F5F5F5F5F5F5F5F5F5F5F5F5F5F5F5F5F5F5F5F5F5F5F5F5F5F5F5F5BEBEBEF50F0FF50FF5F50FF5F50FF5F50FF50FF5F50FF50F0FF5F5F5F5F5F5F5C3C3F5F5C3C3C3C3C3C3C3C33AF5F53AF53AF5F5F53AF53AF5F53AF53AF5F53AF53AF5F5F53AF5
310
3A3A6FF5F56F6F6F6F6F6F6F6F6F6F6F6F6F6FF5F5F5F5F5F5F5F5F5F5F5F5F5F5F5F5F5F5F5F5F5F5F5F5F5F5F5F5F5F5F5F5F5F5F5F5F5F5E2E2E2E2E2E2E2E2E2E2F5F5E2E2F5E2EFEFE2F5E2E2F5F5F5F5F5F5F5F5F5F5F5F5F5F5F5F5F5F5F5F5F5F5F5F5F5F5F5F5F5F5F5F5BEF50F0F0F0F0F0F0F0F0F0F0F0F0F0F
310
0F0F0F0F0F0F0F0F0F0F0F0F0F0F0F0F0F0FC3C3C3C33AC3C33AECECECECECEC3AECECECECEC3AECECECECECF5ECECECECECF5ECECECEC6F6F6F6F6F6F6F6F6F6F6F6F6F6F6F6F6FF5F5F5F5F5F5F5F5F5F5F5F5F5F5F5F5F5F5F5F5F5F5F5F5F5F5F5F5F5F5F5F5F5F5F5F5F5F5E2E2E2E2E2E2E2E2E2E2F5F5E2E2F5E2EF
310
EFE2F5E2E2F5F5F5F5F5F5F5F5F5F5F5F5F5F5F5F5F5F5F5F5F5F5F5F5F5F5F5F5F5F5F5F5BEF50F0F0FF50FF5F50FBEF5BEBEBEBEF5BEBEF50FF50FF5F50FF50FF5F50FF50FF50FF5C3C3F53AF5F5F53A3AF5F53AF53AF5F5F53AF53AF5F53AF53AF5F53AF53AF5F5F53ABEBE3A3A6F6F6F6F6F6F6F6F6F6F6F6F6F6FF5F5
310
F5F5F5F5F5F5F5F5F5F5F5F5F5F5F5F5F5F5F5F5F5F5F5F5F5F5F5F5F5F5F5F5F5F5F5F5F5F5F5F5F5F5F5F5F5F5F5F5E2E2F5E2EFEFE2F5E2E2F5F5F5F5F5F5F5F5F5F5F5F5F5F5F5F5F5F5F5F5F5F5F5F5F5F5F5F5F5F5F5F5BEF50FF5F50FF5F50FF5F5BEBEBEBEF5BEBEBE0FF50FF5F50FF50FF5F50FF50FF5F50FF5F5
310
3A3A3A3A3A3A3A3A3A3A3A3A3A3A3A3A3A3A3A3A3A3A3A3A3A3A3A3A3A3A3A3A3ABEBE3A3A3A3A3A3A3A3ABEBEBEBEF5F5F5E2F5F5F5F5F5F5F5F5F5F5F5F5F5F5F5F5F5F5F5F5F5F5F5F5F5F5F5F5F5F5F5F5F5F5F5F5F5F5F5F5F5F5F5F5F5F5F5F5F5F5E2E2F5E2EFEFE2F5E2E2F5F5F5F5F5F5F5F5F5F5F5F5F5F5F5F5
310
F5F5F5F5F5F5F5F5F5F5F5F5F5F5F5F5BEBE0FF50FF5F50FF50FBEBEBEBEF5BEBEBEBEF50FF5F50FF50FF5F50FF50FF5F5BE0FF5BE3AF5F53AF53AF5F53AF53AF5F53AF53AF5F5F53AF53AF5F53AF53AF5F5F53A3AF5F5BE3AF53AF5F53AF5BEBEBEBEF5F5F5F5E2F5F5F5F5F5F5F5F5F5F5F5F5F5F5F5F5F5F5F5F5F5F5F5
310
F5F5F5F5F5F5F5F5F5F5F5F5F5F5F5F5F5F5F5F5F5F5F5F5F5F5F5E2E2F5E2EFEFE2F5E2E2F5F5F5F5F5F5F5F5F5F5F5F5F5F5F5F5F5F5F5F5F5F5F5F5F5F5F5F5F50F0FBEBEBE0FECECECECF5ECECECECECF5ECECECECEC0FECECECECECF5ECECECECECF5ECEC0FBEBEBEF53AF53AF5F53AF53AF5F53AF53AF5F5F53AF53A
310
F5F53AF53AF5F5F53A3AF5F5F5BEF53AF5F53AF53AF5BEBEBEF5F5F5F5F5F5F5F5F5F5F5F5F5F5F5F5F5F5F5F5F5F5F5F5F5F5F5F5F5F5F5F5F5F5F5F5F5F5F5F5F5F5F5F5F5F5F5F5F5F5F5F5F5F5F5E2E2F5E2EFEFE2F5E2E2F5F5F5F5F5F5F5F5F5F5F5F5F5F5F5F5F5F5F5F5F5F5F5F5F5F5F5F5F50FBEF5BEF50FF5F5
310
0FF50FF5F5F50FF50FF5F50FF50FF5F50FF50FF5F50FF50FF5F5F50FF50FBEBE3A3AF53AF5F53AF53AF5F53AF53AF5F5F53AF53AF5F53AF53AF5F5F53A3AF5F5F53ABE3AF5F53AF53AF5F53ABEBEF5F5F5F5E2F5F5F5F5F5F5F5F5F5F5F5F5F5F5F5F5F5F5F5F5F5F5F5F5F5F5F5F5F5F5F5F5F5F5F5F5F5F5F5F5F5F5F5F5
310
F5F5F5F5F5F5E2E2F5E2EFEFE2F5E2E2F5F5F5F5F5F5F5F5F5F5F5F5F5F5F5F5F5F5F5F5F5F5F5F5F5F5F5F5F50FBEBEBE0FF5F50FF50FF5F5F50FF50FF5F50FF50FF5F5F50FF50FF5F50FF50FF5F50FF50F0FBEF5ECECECF5ECECECECECF5ECECECECECF5ECECECECEC3AECECECECEC3AECECECECBEBEBEECECECEC3AECEC
310
ECECECF5F5F5F5F5E2F5F5F5F5F5F5F5F5F5F5F5F5F5F5F5F5F5F5F5F5F5F5F5F5F5F5F5F5F5F5F5F5F5F5F5F5F5F5F5F5F5F5F5F5F5F5F5F5F5F5E2E2F5E2EFEFE2F5E2E2F5F5F5F5F5F5F5F5F5F5F5F5F5F5F5F5F5F5F5F5F5F5F5F5F5F5F5F5F50FBEBEBEF5F50FF50FF5F5F50FF50FF5F50FF50FF5F5F50FF50FF5F50F
310
F50FF5F50FF50FF50FF5F53A3AF5F53AF53AF5F53AF53AF5F5F53AF53AF5F53AF53AF5F5F53A3AF5F53AF5BEBEBEF53AF53AF5F53AF53A3AF5F5F5F5F5E2F5F5F5F5F5F5F5F5E2E2E2E2E26FE2F5F5F5F5F5F5F5F5F5F5F5F5F5F5F5F5E2E2E2E26FE2E2F5F5F5F5F5F5F5F5F5F5F5F5E2E2F5E2EFEFE2F5E2E2F5F5F5F5F5
310
F5F5F5F5F5F5F5F5F5F5F5F5F5F5F5F5F5F5F5F5F5F5F5F50FBEBEBEF50FF50FF5F5F50FF50FF5F50FF50FF5F5F50FF50FF5F50FF50FF5F50FF50FF5F50FF5F53AF5F53AF53AF5F53AF53AF5F53A3A3A3AF5F53AF53AF5F53A3A3AF5F53AF53ABEBEBE3AF53AF5F53AF5F53AF5F5F5F5F5F5E2F5F5F5F5F5E26F6FF5F5F5F5
310
F56FF5E2E2E2F5F5F5F5F5F5F5F5F5F5E26F6FF5F5F5F56FF5F5E2E2F5F5F5F5F5F5F5F5F5F5E2E2F5E2EFEFE2F5E2E2F5F5F5F5F5F5F5F5F5F5F5F5F5F5F5F5F5F5F5F5F5F5F5F5F5F5F5F5F50F0FBEBEBEF50FF5F5F50FF50FF5F50FF50FF5F5F50FF50FF5F50FF50FF5F50FF50FF5F50F0FF5F53AF53AF53AF5F53AF53A
310
F5F53AF53AF5F5F53AF53AF5F53AF53AF5F53AF53AF5F5F5BEF53AF5F53AF53A3A3AF5F5F5F5F5F5E2F5F5F5F53A6F6F6F6F6F6F6F6F6F6F6F6F6FF5F5F5F5F5F5F5F5F53AF56F6F6F6F6F6F6F6F6F6F6F6FF5F5F5F5F5F5F5F5F5E2E2F5E2EFEFE2F5E2E2F5F5F5F5F5F5F5F5F5F5F5F5F5F5F5F5F5F5F5F5F5F5F5F5F5F5
310
F5F5F50F0FBEBE0F0FECECECECF5ECECECECEC0FECECECECEC0FECECECECECF5ECECECECECF5ECEC0FF5F53A3AF53AF5F53AF53AF5F53AF53AF5F5F53AF53AF5F53AF53AF5F5F53A3AF5F5F53ABE3AF5F53AF53AF5F53AF5F5F5F5F5F5F5F5F5F53A3A6FF56F6F6F6F6F6F6F6F6F6F6F6F6FF5F5F5F5F5F53A3AF5F56F6F6F
310
6F6F6F6F6F6F6F6F6FF5F5F5F5F5F5F5F5E2E2F5E2EFEFE2F5E2E2F5F5F5F5F5F5F5F5F5F5F5F5F5F5F5F5F5F5F5F5F5F5F5F5F5F5F5F5F5F5F5BEF5F50FF5F50FF50FF5F50FF50FF5F5F50FF50FF5F50FF50FF5F50FF50FF5F5F50FF50FF5F53AF53AF5F53AF53AF5F53AF53AF5F5F53AF53AF5F53AF53AF5F5F53A3AF5F5
310
F53AF5BEF5F53AF5BEBEF53AF5F5F5F5F5F5F5E2F5F5E2E23A6F6F6F6F6F6F6F6FBEBEBEBEBE6F6FF5F5F5F5F5E2E23A6F6F6F6F6F6F6FBEBEBEBEBE6F6F6FF5F5F5F5F5F5F5E2E2F5E2EFEFE2F5E2E2F5F5F5F5F5F5F5F5F5F5F5F5F5F5F5F5F5F5F5F5F5F5F5F5F5F5F5F5BEBEF5F5F5F5BE0F0F0F0F0F0F0F0F0F0F0F0F
310
0F0F0F0F0F0F0F0F0F0F0F0F0F0F0F0F0F0F0F0FF5F53A3AF5F53AF53AF5F53AF53AF5F5F53AF53AF5F53AF53AF5F5F53A3AF5F5F53AF53ABEF53AF53ABEBEF53AF5F5F5F5F5F5F5F5F5F5E2F53A3A3A3A3A3A3A3A3A3ABEBEBEBE6F6F6FF5F5F5F5E23A3A3A3A3A3A3A3A3A3ABEBEBEBE6F6F6FE2F5F5F5F5F5F5E2E2F5E2
310
EFEFE2F5E2E2F5F5F5F5F5F5F5F5F5F5F5F5F5F5F5F5F5F5F5F5F5F5F5F5F5F5F5F5F5BEBEBEBEBEBEBEF5F5F50F0FF5F5F50FF50FF5F50FF50FF5F5F50FF50FF5F50FF50FF5F50F0FF5F53A3A3A3A3A3A3A3A3A3A3ABE3A3A3A3A3A3A3A3A3A3A3A3A3A3A3A3A3A3A3A3A3ABEBE3A3A3A3A3A3A3A3AF5F5F5F5F5F5F5E2F5
310
E2F5F5F53AF53AF5F5F53AF53ABEBEBEF5F5F5E2F5F5F5E23AF53AF5F5F53AF53AF5F53ABEBEBEF5F5F5E2F5F5F5F5F5F5E2E2F5E2EFEFE2F5F5E2F5F5F5F5F5F5F5F5F5F5F5F5F5F5F5F5F5F5F5F5F5F5F5F5F5F5F5F5F5BEF5BEBEF5BEBE0FF5F5F50F0FF5F5F50FF50FF5F50FF50FF5F5F50FF50FF5F50FF50FF5F50F0F
310
0F0F0F0F0F0F0F0FF5F5F5BEF5F5F5F5F5F5F5F5F5F5F5F5F5F5F5F5F5F5F5F5F5F5BEF5F5F5F5F5F5F5F5F5F5F5F5F5F5F5F5E2F5E2F5F53AF53AF5F5F53AF53A3A3A3ABEF5F5F5F5E2F5F5E23A3AF5F5F53AF53AF5F53A3A3A3AF5F5F5F5E2F5F5F5F5F5F5E2F5F5E2EFEFE2F5F5E2F5F5F5F5F5F5F5F5F5F5F5F5F5F5F5
310
F5F5F5F5F5F5F5F5F5F5F5F5F5F5BEF5BEBEF50F0FF50FBEF5F50F0FF5F5F50FF50FF5F50FF50FF5F5F50FF50FF5F50FF50FF5F50FF50FF5F5F50F0F0FF5F5F5BEF5F5F5F5F5F5F5F5F5F5F5F5F5F5F5F5F5F5F5F5F5F5F5F5F5F5F5F5F5F5F5F5F5F5F5F5F5F5F5E2F5E2F53AF53AF5F5F53AF53AF5F53A3AF5F5F5F5F5E2
310
F5F5E2F5F5F5F53AF53AF5F53AF53AF53AF5F5F5F5F5E2F5F5F5F5F5E2F5F5E2EFEFE2F5F5E2F5F5F5F5F5F5F5F5F5F5F5F5F5F5F5F5F5F5F5F5F5F5F5F5F5F5F5F5F50F0F0F0F0F0FECBEBEECF5ECECECECECF5ECECECECECF5ECECECECECF5ECECECECEC0FECECECECECF5ECECECECEC0FF5F5F5BEF5F5F5F5F5F5F5F5F5
310
F5F5F5F5F5F5F5F5F5F5F5F5F5F5F5F5F5F5F5F5F5F5F5F5F5F5F5F5F5F5F5F5E23AF53AF5F5F53AF53AF5F53AF53AF5F5F5F5F5E2F53AE2F5F53A3AF53AF5F53AF53AF53A3AF5F5F5F5F5E2F5F5F5F5F5E2F5F5E2EFEFE2F5F5E2F5F5F5F5F5F5F5F5F5F5F5F5F5F5F5F5F5F5F5F5F5F5F5F5F5F5F5F5F50FF5F50FF50FF5
310
BEBEF50FF5F5F50F0FF5F5F50FF50FF5F50FF50FF5F5F50FF50FF5F50FF50FF5F50FF50F0FF50F0FF5F5F5BEF5F5F5F5F5F5F5F5F5F5F5F5F5F5F5F5F5F5F5F5F5F5F5F5F5F5F5F5F5F5F5F5F5F5F5F5F5F5F5F5F5E2F53AF5F5F53AF53AF5F53AF53A3AF5F5F5F5F5E2F5E2F5F53AF53A3AF5F53AF53AF53AF53AF5F5F5F5
310
F5E2F5F5F5F5F5E2F5F5E2EFEFE2F5F5E2F5F5F5F5F5F5F5F5F5F5F5F5F5F5F5F5F5F5F5F5F5F5F5F5F5F5F5F5F50F0FF5F50FF5BEBEBE0FF50FF5F5F50F0F0FF5F50FF50FF5F50F0F0F0FF5F50FF50FF5F50FF50FF5F50FF5F50F0FF5F5BEBEBEF5F5F5F5F5F5F5F5F5F5F5F5F5F5F5F5F5F5F5F5F5F5F5F5F5F5F5F5F5F5
310
F5F5F5F5F5F5F5F5F5F5F5E23AF5F5F53AF53AF5F53AF53A3AF5F5F5F5F5F5E2F5F5E23AF53AF5F5F53AF53AF53AF53AF5F5F5F5F5F5E2F5F5F5F5F5E2F5F5E2EFEFE2F5F5E2F5F5F5F5F5F5F5F5F5F5F5F5F5F5F5F5F5F5F5F5F5F5F5F5F5F5F5F5F50FF50FF5F50FBEBEBEF50F0F0FF5F5F50FF50FF5F50FF50FF5F5F50F
310
F50FF5F50FF50FF5F50FF50FF5F50FF5F50FF5F5BEBEBEF5F5F5F5F5F5F5F5F5F5F5F5F5F5F5F5F5F5F5F5F5F5F5F5F5F5F5F5F5F5F5F5F5F5F5F5F5F5F5F5F5E2F5F5F53AF53ABEBEBEBE3AF53AF5F5F5F5F5F5E2F5F5E2F53AF5F5F53AF53AF53AF53A3AF5F5F5F5F5F5E2F5F5F5F5F5E2F5F5E2EFEFE2F5F5E2F5F5F5F5
310
F5F5F5F5F5F5F5F5F5F5F5F5F5F5F5F5F5F5F5F5F5F5F5F5F50F0FF50FF5F50FBEBEF5F5F50F0FF5F5F50FF50FF5F50FF50FF5F5F50FF50FF5F50FF50FF5F50FF50FF5F50FF50FF5F5F5F5BEF5F5F5F5F5F5F5F5F5F5F5F5F5F5F5F5F5F5F5F5F5F5F5F5F5F5F5F5F5F5F5F5F5F5F5F5F5F5F5F5F5E2F5F53AF53AF5BEBEBE
310
3AF53AF5F5F5F5F5F5F5E2F5F5E23AF5F5F53AF53AF5F53AF53AF5F5F5F5F5F5E2F5F5F5F5F5F5E2F5F5E2EFEFE2F5F5E2F5E2E2E2E2E2E2E2E2E2E2E2E2E2E2E2E2E2E2E2E2E2E2E2F5F5F5F5F50FF50FF50FF5BEBEBE0FF5F5F50F0FF5F5F50FF50FF5F50FF50FF5F5F50FF50FF5F50FF50FF5F50FF50FF5F50FF5F5F5F5
310
F5BEF5F5F5F5F5F5F5F5F5F5F5F5F5F5F5F5F5F5F5F5F5F5F5F5F5F5F5F5F5F5F5F5F5F5F5F5F5F5F5F5F5F5E23AF53AF53AF53AF5F53A3AF5F5F5F5F5F5E2F5F5F5E2F5F5F53AF53AF5F53A3A3A3AF5F5F5F5F5F5E2F5F5F5F5F5F5E2F5F5E2EFEFE2F5E2E2F5E2E2E2E2E2E2E2E2E2E2E2E2E2E2E2E2E2E2E2E2E2E2E2F5
310
F5F5F5F50FF5F50FF50FF5F5BEF50FF5F5F50F0FF5F5F50FF50FF5F50FF50FF5F5F50FF50FF5F50FF50FF5F50FF50F0F0FF5F5F5F5F5BEF5F5F5F5F5F5F5F5F5F5F5F5F5F5F5F5F5F5F5F5F5F5BEF5F5F5F5F5F5F5F5F5F5BEF5F5F5F5F5F5F5F5E2F53AF5F53AF53AF53A3AF5F5F5F5F5F5F5E2F5F5F5F5E2F53AF53AF5F5
310
3AF53AF5F5F5F5F5F5F5F5E2F5F5F5F5F5F5E2E2F5E2EFEFE2F5E2E2F5E2E2E2E2E2E2E2E2E2E2E2E2E2E2E2E2E2E2E2E2E2E2E2F5F5F5F5F50F0F0F0F0F0F0FBEBEBE0F0F0F0F0F0F0F0F0F0F0F0F0F0F0F0F0F0F0F0F0F0F0F0F0F0F0F0F0F0F0F0F0F0FF5F5F5F5F5F5BEBEF5F5F5F5F5F5F5F5F5F5F5F5F5F5F5F5F5F5
310
F5F5F5F5BEBEBEBEBEBEBEBEBEBEBEBEF5F5F5F5F5F5F5F5E2F5F53AF53A3A3AF5F5F5F5F5F5F5F5E2F5F5F5F5F5E23AF53AF5F53AF53AF5F5F5F5F5F5F5F5E2F5F5F5F5F5F5F5E2E2F5E2EFEFE2F5E2E2F5F5F5F5F5F5F5F5F5F5F5F5F5F5F5F5F5F5F5F5F5F5F5F5F5F5F5F5F5F5F5F5F5F5F5F5BEBEF5F5F5F5F5F5F5F5
310
F5F5F5F5F5F5F5F5F5F5F5F5F5F5F5F5F5F5F5F5F5F5F5F5F5F5F5F5F5F5F5F5F5BEF5F5F5F5F5F5F5F5F5F5F5F5F5F5F5F5F5F5F5F5F5F5F5F5F5F5F5BEBEBEF5F5F5F5F5F5F5F5F5F5F5F5F53A3A3A3A3A3AF5F5F5F5F5F5F5F5F5E2E2F5F5F5F5F5F53A3A3A3A3A3A3AF5F5F5F5F5F5F5F5E2F5F5F5F5F5F5F5F5E2E2F5
310
E2EFEFE2F5E2E2F5F5F5F5F5F5F5F5F5F5F5F5F5F5F5F5F5F5F5F5F5F5F5F5F5F5F5F5F5F5F5F5F5F5F5F5F5F5F5F5F5F5F5F5F5F5F5F5F5F5F5F5F5F5F5F5F5F5F5F5F5F5F5F5F5F5F5F5F5F5BEF5F5F5BEF5F5F5F5F5F5F5F5F5F5F5F5F5F5F5F5F5F5F5F5F5F5F5F5F5F5F5F5F5F5F5F5F5BEBEF5F5F5BEF5F5F5F5F5F5
310
F5F5F5F5F5E2F5F5F5F5F5F5F5F5F5F5F5E2F5F5F5F5F5F5F5F5F5E2F5F5F5F5F5F5F5F5F5F5F5F5E2F5F5F5F5F5F5F5F5F5E2E2F5E2EFEFE2F5E2E2F5F5F5F5F5F5F5F5F5F5F5F5F5F5F5F5F5F5F5F5F5F5F5F5F5F5F5F5F5F5F5F5F5F5F5F5F5F5F5F5F5F5F5F5F5F5F5F5F5F5F5F5F5F5F5F5F5F5F5F5F5F5F5F5F5F5F5
310
F5F5F5F5BEBEBEBEBEBEBEBEBEBEBEBEBEBEBEBEBEBEBEBEBEBEBEBEBEBEBEBEBEBEBEBEBEBEBEBEBEBEBEBEBEBEBEBEF5F5F5F5F5F5F5F5F5F5E2E2E2F5F5F5F5F5F5F5E2E2F5F5F5F5F5F5F5F5F5F5F5E2E2E2F5F5F5F5F5F5E2E2E2F5F5F5F5F5F5F5F5F5F5E2E2F5E2EFEFE2F5E2E2F5F5F5F5F5F5F5F5F5F5F5F5F5F5
310
F5F5F5F5F5F5F5F5F5F5F5F5F5F5F5F5F5F5F5F5F5F5F5F5F5F5F5F5F5F5F5F5F5F5F5F5F5F5F5F5F5F5F5F5F5F5F5F5F5F5F5F5F5F5F5F5F5F5F5BEBEF5F5F5F5F5F5F5F5F5F5F5F5F5F5F5F5F5F5BEBEBEF5F5F5F5F5F5F5F5F5F5F5F5F5F5F5F5F5F5F5F5F5F5F5F5F5F5F5F5F5F5F5F5E2E20FF5E23AE2F5F5F5F5F5F5
310
F5F5F5F5F5F5F5F5F5F5E20FE2E2E23AF5F5F5F5F5F5F5F5F5F5F5F5F5E2E2F5E2EFEFE2F5E2E2F5E2E2E2E2E2E2E2E2E2E2E2E2E2E2E2E2E2E2F5F5F5F5F5F5F5F5F5F5F5F5F5F5F5F5F5F5F5F5F5F5F5F5F5F5F5F5F5F5F5F5F5F5F5F5F5F5F5F5F5F5F5F5F5F5F5F5F5F5F5F5F5BEBEBEF5F5F5F5F5F5F5F5F5F5F5F5F5
310
F5F5F5F5F5F5BEBEF5F5F5F5F5F5F5F5F5F5F5F5F5F5F5F5F5F5F5F5F5F5F5F5F5F5F5F5F5F5E20FE20F0FF53A3AE23AE2F5F5F5F5F5F5F5F5F5F5F5F5E20F0F0FF5F53A3AE23AF5F5F5F5F5F5F5F5F5F5F5E2E2F5E2EFEFE2F5E2E2F5E2E2E2E2E2E2E2E2E2E2E2E2E2E2E2E2E2E2F5F5F5F5F5F5F5F5F5F5F5F5F5F5F5F5
310
F5F5F5F5F5F5F5F5F5F5F5F5F5F5F5F5F5F5F5F5F5F5F5F5F5F5F5F5F5F5F5F5F5F5F5F5F5F5F5F5F5F5F5F5F5F5F5F5F5F5F5F5F5F5F5F5F5F5F5F5F5F5F5F5F5F5F5F5F5F5F5F5F5F5F5F5F5F5F5F5F5F5F5F5F5F5F5F5F5F5E20FF50FF50FF53AF53AF5E23AF5F5F5F5F5F5F5F5F5E2E20FF50F0FF5F53AF53AF5E23AF5
310
F5F5F5F5F5F5F5F5E2E2F5E2EFEFE2F5E2E2F5F5F5F5F5F5F5F5F5F5F5F5F5F5F5F5F5F5F5F5F5F5F5F5F5F5F5F5F5F5F5F5F5F5F5F5F5F5F5F5F5F5F5F5F5F5F5F5F5F5F5F5F5F5F5F5F5F5F5F5F5F5F5F5F5F5F5F5F5F5F5F5F5F5F5F5F5F5F5F5F5F5F5F5F5F5F5F5F5F5F5F5F5F5F5F5F5F5F5F5F5F5F5F5F5F5F5F5F5
310
F5F5F5F5F5F5F5F5F5F5F5F5F5F5F5E20FF50FF5F50FF53A3AF5F53AF53AF5F5F5F5F5F5F5F5E20FF50FF50FF5F53A3AF5F53AF53AF5F5F5F5F5F5F5F5E2E2F5E2EFEFE2F5E2E2F5E2E2E2E2E2E2E2E2E2E2E2E2E2E2E2E2E2E2E2E2E2E2E2E2E2E2E2E2E2E2E2E2E2F5F5F5F5F5F5F5F5F5F5F5F5F5F5F5F5F5F5F5F5F5F5
310
F5F5F5F5F5F5F5F5F5F5F5F5F5F5F5F5F5F5F5F5F5F5F5F5F5F5F5F5F5F5F5F5F5F5F5F5F5F5F5F5F5F5F5F5F5F5F5F5F5F5F5F5F5F5F5F5F5F5F5F5F5F5F5F5F5F5F50F0F0F0F0F0F0F0FF53AF5F53AF53AF5E2F5F5F5F5F5F50F0F0F0F0F0F0FF5F53AF5F53AF53AE2F5F5F5F5F5F5F5F5E2E2F5E2EFEFE2F5E2E2F5E2E2
310
E2E2E2E2E2E2E2E2E2E2E2E2E2E2E2E2E2E2E2E2E2E2E2E2E2E2E2E2E2E2E2F5F5F5F5F5F5F5F5F5F5F5F5F5F5F5F5F5F5F5F5F5F5F5F5F5F5F5F5F5F5F5F5F5F5F5F5F5F5F5F5F5F5F5F5F5F5F5F5F5F5F5F5F5F5F5F5F5F5F5F5F5F5F5F5F5F5F5F5F5F5F5F5F5F5F5F5F5F5F5F5F5F5F5F5F5F5F5F5E2E2F5F50FF50F0F
310
0FF53AF53AF53AF5F5E23AF5F5F5F5E2F5F50FF50FF50FF5F53AF53AF53AF5F53AE2F5F5F5F5F5F5E2E2F5E2EFEFE2F5E2E2F5E2E2E2E2E2E2E2E2E2E2E2E2E2E2E2E2E2E2E2E2E2E2E2E2E2E2E2E2E2E2E2E2E2F5F5F5F5F5F5F5F5F5F5F5F5F5F5F5F5F5F5F5F5F5F5F5F5F5F5F5F5F5F5F5F5F5F5F5F5F5F5F5F5F5F5F5
310
F5F5F5F5F5F5F5F5F5F5F5F5F5F5F5F5F5F5F5F5F5F5F5F5F5F5F5F5F5F5F5F5F5F5F5F5F5F5F5F5F5F5F5F5F5E2F50FF5F50FF5F50FF53A3AF53AF5F53A3A3AF5F5F5E2F50FF5F50FF50F0FF5F53A3AF53AF5F53AF53AF5F5F5F5F5F5E2E2F5E2EFEFE2F5E2E2F5F5F5F5F5F5F5F5F5F5F5F5F5F5F5F5F5F5F5F5F5F5F5F5
310
F5F5F5F5F5F5F5F5F5F5F5F5F5F5F5F5F5F5F5F5F5F5F5F5F5F5F5F5F5F5F5F5F5F5F5F5F5F5F5F5F5F5F5F5F5F5F5F5F5F5F5F5F5F5F5F5F5F5F5F5F5F5F5F5F5F5F5F5F5F5F5F5F5F5F5F5F5F5F5F5F5F5F5F5F5F5F5F5F5F5F5F5F5F5F5F5F5E2F50FF50FF5F50FF50F0F3A0F3A0F0F3A0F3A3AE2F5F5E20FF50FF5F50F
310
F50F0F0F3A3A3A3A3A3A3A3AE2F5F5F5F5F5F5E2E2F5E2EFEFE2F5E2E2F5E2E2E2E2E2E2E2E2E2E2E2E2E2E2E2E2E2E2E2E2E2E2E2E2E2E2E2E2E2E2F5F5F5F5F5F5F5F5F5F5F5F5F5F5F5F5F5F5F5F5F5F5F5F5F5F5F5F5F5F5F5F5F5F5F5F5F5F5F5F5F5F5F5F5F5F5F5F5F5F5F5F5F5F5F5F5F5F5F5F5F5F5F5F5F5F5F5
310
F5F5F5F5F5F5F5F5F5F5F5F5F5F5F5F5F5F5F5F5F5F5F5E2F5F50FF50FF5F50FF5F50FF5F50FF50F0F0FF5E2F5F5E2F50FF50FF5F50FF50FF5F5F50FF50FF50FF5F5E2F5F5F5F5F5E2E2F5E2EFEFE2F5E2E2F5E2E2E2E2E2E2E2E2E2E2E2E2E2E2E2E2E2E2E2E2E2E2E2E2E2E2E2E2E2E2F5F5F5F5F5F5F5F5F5F5F5F5F5F5
310
F5F5F5F5F5F5F5F5F5F5F5F5F5F5F5F5F5F5F5F5F5F5F5F5F5F5F5F5F5F5F5F5F5F5F5F5F5F5F5F5F5F5F5F5F5F5F5F5F5F5F5F5F5F5F5F5F5F5F5F5F5F5F5F5F5F5F5F5F5F5F5F5F5F5F5F5E20FF5F50FF50FF5F50F0FF50FF5F50F0F0F0FF5E2F5F5E2F5F50FF50FF5F50FF50FF5F5F50FF50F0FF5F5E2F5F5F5F5F5E2E2
310
F5E2EFEFE2F5E2E2F5F5F5F5F5F5F5F5F5F5F5F5F5F5F5F5F5F5F5F5F5F5F5F5F5F5F5F5F5F5F5F5F5F5F5F5F5F5F5F5F5F5F5F5F5F5F5F5F5F5F5F5F5F5F5F5F5F5F5F5F5F5F5F5F5F5F5F5F5F5F5F5F5F5F5F5F5F5F5F5F5F5F5F5F5F5F5F5F5F5F5F5F5F5F5F5F5F5F5F5F5F5F5F5F5F5F5F5F5F5F5F5F5F5F5F5F5F5F5
310
F5F5E2F50FF5F50FF50FF5F5F50FF50FF5F50F0FF5F5E2F5E2F50FF5F50FF50FF5F50FF50FF5F50FF5F50FF5F5E2F5F5F5F5F5E2E2F5E2EFEFE2F5F5E2F5E2E2E2E2E2E2E2E2E2E2E2E2E2E2E2E2E2E2E2E2E2E2E2E2E2E2E2E2E2E2E2E2E2E2E2E2E2E2E2E2E2E2E2E2E2E2E2E2E2E2E2E2E2E2E2E2E2E2E2F5F5F5F5F5F5
310
F5F5F5F5F5F5F5F5F5F5F5F5F5F5F5F5F5F5F5F5F5F5F5F5F5F5F5F5F5F5F5F5F5F5F5F5F5F5F5F5F5F5F5F5F5F5F5F5F5F5F5F5F5F5F5E20FF50FF5F50FF50FF5F5F50FF50FF50F0FF5F5E2F50FE2F50FF5F50F0FF5F5F50FF50FF5F50FF50FF5F5E2F5F5F5F5F5E2F5F5E2EFEFE2F5F5E2F5E2E2E2E2E2E2E2E2E2E2E2E2
310
E2E2E2E2E2E2E2E2E2E2E2E2E2E2E2E2E2E2E2E2E2E2E2E2E2E2E2E2E2E2E2E2E2E2E2E2E2E2E2E2E2E2E2E2E2E2E2F5F5F5F5F5F5F5F5F5F5F5F5F5F5F5F5F5F5F5F5F5F5F5F5F5F5F5F5F5F5F5F5F5F5F5F5F5F5F5F5F5F5F5F5F5F5F5F5F5F5F5F5F5F5F5F5F5F5F5F5F5E2F50FF50FF5F50FF50FF5F5F50FF50F0FF5F5
310
F5E2F5F5E2F5F50FF5F50F0FF5F5F50FF50FF5F50FF5F5F5E2F5F5F5F5F5E2F5F5E2EFEFE2F5F5E2F5E2E2E2E2E2E2E2E2E2E2E2E2E2E2E2E2E2E2E2E2E2E2E2E2E2E2E2E2E2E2E2E2E2E2E2E2E2E2E2E2E2E2E2E2E2E2E2E2E2E2E2E2E2E2E2E2E2E2E2F5F5F5F5F5F5F5F5F5F5F5F5F5F5F5F5F5F5F5F5F5F5F5F5F5F5F5
310
F5F5F5F5F5F5F5F5F5F5F5F5F5F5F5F5F5F5F5F5F5F5F5F5F5F5F5F5F5F5F5F5F5F5E2F5F50F0FF5F5F50FF50FF5F5F50FF50FF5F5F5E2F5F5E20FF5F50FF5F50F0FF5F5F50FF50FF50FF5F5E2F5F5F5F5F5F5E2F5F5E2EFEFE2F5F5E2F5E2E2E2E2E2E2E2E2E2E2E2E2E2E2E2E2E2E2E2E2E2E2E2E2E2E2E2E2E2E2E2E2E2
310
E2E2E2E2E2E2E2E2E2E2E2E2E2E2E2E2E2E2E2E2E2E2E2E2E2E2F5F5F5F5F5F5F5F5F5F5F5F5F5F5F5F5F5F5F5F5F5F5F5F5F5F5F5F5F5F5F5F5F5F5F5F5F5F5F5F5F5F5F5F5F5F5F5F5F5F5F5F5F5F5F5F5F5F5F5F5F5E20FF5F50F0FF5F5F50FF50FF5F5F50FF5F5F5E2F5F5F5E2F50F0F0FF5F5F50F0FF5F5F50F0F0FF5
310
F5F5E2F5F5F5F5F5F5E2F5F5E2EFEFE2F5F5E2F5E2E2E2E2E2E2E2E2E2E2E2E2E2E2E2E2E2E2E2E2E2E2E2E2E2E2E2E2E2E2E2E2E2F5F5F5F5F5F5F5F5F5F5F5F5F5F5F5F5F5F5F5F5F5F5F5F5F5F5F5F5F5F5F5F5F5F5F5F5F5F5F5F5F5F5F5F5F5F5F5F5F5F5F5F5F5F5F5F5F5F5F5F5F5F5F5F5F5F5F5F5F5F5F5F5F5F5
310
F5F5F5F5F5F5F5F5F5F5F5F5F5F5E20FF5F50F0FF5F5F50FF50FF50F0FF5F5F5E2F5F5F5F5E2F5F50F0FF5F5F50F0FF5F50F0FF5F5F5F5E2F5F5F5F5F5F5E2F5F5E2EFEFE2F5F5E2F5E2E2E2E2E2E2E2E2E2E2E2E2E2E2E2E2E2E2E2E2E2E2E2E2E2E2E2E2E2E2E2E2E2F5F5F5F5F5F5F5F5F5F5F5F5F5F5F5F5F5F5F5F5F5
310
F5F5F5F5F5F5F5F5F5F5F5F5F5F5F5F5F5F5F5F5F5F5F5F5F5F5F5F5F5F5F5F5F5F5F5F5F5F5F5F5F5F5F5F5F5F5F5F5F5F5F5F5F5F5F5F5F5F5F5F5F5F5F5F5F5F5F5E20FF5F5F50F0FF5F5F50F0F0FF5F5F5F5E2F5F5F5F5F5E2F5F5F50F0FF5F5F50F0FF50FF5F5F5F5E2F5F5F5F5F5F5F5E2F5F5E2EFEFE2F5F5E2F5E2
310
E2E2E2E2E2E2E2E2E2E2E2E2E2E2E2E2E2E2E2E2E2E2E2E2E2E2E2E2E2E2E2E2F5F5F5F5F5F5F5F5F5F5F5F5F5F5F5F5F5F5F5F5F5F5F5F5F5F5F5F5F5F5F5F5F5F5F5F5F5F5F5F5F5F5F5F5F5F5F5F5F5F5F5F5F5F5F5F5F5F5F5F5F5F5F5F5F5F5F5F5F5F5F5F5F5F5F5F5F5F5F5F5F5F5F5F5F5F5F5F5F50F0F0F0F0F0F
310
0F0F0F0F0FF5F5F5F5F5E2F5F5F5F5F5F5E20F0F0F0F0F0F0F0F0F0F0FF5F5F5F5E2F5F5F5F5F5F5F5E2F5F5E2EFEFE2F5F5E2F5E2E2E2E2E2E2E2E2E2E2E2E2E2E2E2E2E2E2E2E2E2E2E2E2E2E2E2E2E2E2E2E2E2F5F5F5F5F5F5F5F5F5F5F5F5F5F5F5F5F5F5F5F5F5F5F5F5F5F5F5F5F5F5F5F5F5F5F5F5F5F5F5F5F5F5
310
F5F5F5F5F5F5F5F5F5F5F5F5F5F5F5F5F5F5F5F5F5F5F5F5F5F5F5F5F5F5F5F5F5F5F5F5F5F5F5F5F5F5F5F5F5F5F5F5E2F5F5F5F5F5F5F5F5F5F5F5F5E2E2F5F5F5F5F5F5F5E2E2F5F5F5F5F5F5F5F5F5F5F5F5E2E2F5F5F5F5F5F5F5F5E2F5F5E2EFEFE2F5F5E2F5E2E2E2E2E2E2E2E2E2E2E2E2E2E2E2E2E2E2E2E2E2E2
310
E2E2E2E2E2E2E2E2E2E2E2F5F5F5F5F5F5F5F5F5F5F5F5F5F5F5F5F5F5F5F5F5F5F5F5F5F5F5F5F5F5F5F5F5F5F5F5F5F5F5F5F5F5F5F5F5F5F5F5F5F5F5F5F5F5F5F5F5F5F5F5F5F5F5F5F5F5F5F5F5F5F5F5F5F5F5F5F5F5F5F5F5F5F5F5F5F5F5F5F5F5F5E2E2F5F5F5F5F5F5F5F5F5E2E2F5F5F5F5F5F5F5F5F5F5E2E2
310
F5F5F5F5F5F5F5F5E2E2F5F5F5F5F5F5F5F5F5F5E2F5F5E2EFEFE2F5E2E2F5E2E2E2E2E2E2E2E2E2E2E2E2E2E2E2E2E2E2E2E2E2E2E2E2E2E2E2E2E2E2E2E2E2E2E2E2E2E2E2E2E2E2E2E2E2E2E2E2E2E2E2E2E2E2E2E2E2E2E2F5F5F5F5F5F5F5F5F5F5F5F5F5F5F5F5F5F5F5F5F5F5F5F5F5F5F5F5F5F5F5F5F5F5F5F5F5
310
F5F5F5F5F5F5F5F5F5F5F5F5F5F5F5F5F5F5F5F5F5F5F5F5F5F5F5F5F5F5E2E2E2F5F5F5E2E2E2F5F5F5F5F5F5F5F5F5F5F5F5F5F5E2E2E2F5F5F5E2E2E2F5F5F5F5F5F5F5F5F5F5F5E2E2F5E2EFEFE2F5E2E2F5E2E2E2E2E2E2E2E2E2E2E2E2E2E2E2E2E2E2E2E2E2E2E2E2E2E2E2E2E2E2E2E2E2E2E2E2E2E2E2E2E2E2E2
310
E2E2E2E2E2E2E2E2E2E2E2E2E2E2E2E2F5F5F5F5F5F5F5F5F5F5F5F5F5F5F5F5F5F5F5F5F5F5F5F5F5F5F5F5F5F5F5F5F5F5F5F5F5F5F5F5F5F5F5F5F5F5F5F5F5F5F5F5F5F5F5F5F5F5F5F5F5F5F5F5F5F5F5F5F5F5E2E2E2F5F5F5F5F5F5F5F5F5F5F5F5E2E2E2E2E2E2E2E2E2E2E2E2E2E2E2E2E2E2E2F5F5F5F5F5F5E2
310
E2F5E2EFEFE2F5E2E2F5E2E2E2E2E2E2E2E2E2E2E2E2E2E2E2E2E2E2E2E2E2E2E2E2E2E2E2E2E2E2E2E2E2E2E2E2E2E2E2E2E2E2E2E2E2E2E2E2E2E2E2E2E2E2E2E2E2E2E2F5F5F5F5F5F5F5F5F5F5F5F5F5F5F5F5F5F5F5F5F5F5F5F5F5F5F5F5F5F5F5F5F5F5F5F5F5F5F5F5F5F5F5F5F5F5F5F5F5F5F5F5F5F5F5F5F5F5
310
F5F5F5F5F5E2E2E2E2E2E2E2E2E2E2E2E2E2E2E2E2E2E2F5F5F5F5E2E2E2E2E2E2E2E2E2F5E2E2E2E2E2E2E2E2E2F5F5F5F5F5F5E2E2F5E2EFEFE2F5E2E2F5E2E2E2E2E2E2E2E2E2E2E2E2E2E2E2E2E2E2E2E2E2E2E2E2E2E2E2E2E2E2E2E2E2E2E2E2E2E2E2E2E2E2E2E2E2E2E2E2E2E2E2E2E2E2E2E2E2E2E2F5F5F5F5F5
310
F5F5F5F5F5F5F5F5F5F5F5F5F5F5F5F5F5F5F5F5F5F5F5F5F5F5F5F5F5F5F5F5F5F5F5F5F5F5F5F5F5F5F5F5F5F5F5F5F5F5F5F5F5F5F5F5F5F5E2E2E2E2E2E2E2E2E2E2E2E2E2E2E2E2E2E2F5F5F5F5E2E2E2E2E2E2E2E2E2F5E2E2E2E2E2E2E2E2E2F5F5F5F5F5F5E2E2F5E2EFEFE2F5E2E2F5E2E2E2E2E2E2E2E2E2E2E2
310
E2E2E2E2E2E2E2E2E2E2E2E2E2E2E2E2E2E2E2E2E2E2E2E2E2E2E2E2E2E2E2E2E2E2E2E2E2E2E2E2E2E2E2E2E2E2E2E2F5F5F5F5F5F5F5F5F5F5F5F5F5F5F5F5F5F5F5F5F5F5F5F5F5F5F5F5F5F5F5F5F5F5F5F5F5F5F5F5F5F5F5F5F5F5F5F5F5F5F5F5F5F5F5F5F5F5F5F5F5F5E2E2F5F5E2F5F5E2F5F5E2E2F5E2E2E2E2
310
F5F5F5F5F5F5E2E2F5E2F5F5E2F5F5F5E2E2F5F5E2E2F5F5E2F5F5F5F5F5F5E2E2F5E2EFEFE2F5E2E2F5F5F5F5F5F5F5F5F5F5F5F5F5F5F5F5F5F5F5F5F5F5F5F5F5F5F5F5F5F5F5F5F5F5F5F5F5F5F5F5F5F5F5F5F5F5F5F5F5F5F5F5F5F5F5F5F5F5F5F5F5F5F5F5F5F5F5F5F5F5F5F5F5F5F5F5F5F5F5F5F5F5F5F5F5F5
310
F5F5F5F5F5F5F5F5F5F5F5F5F5F5F5F5F5F5F5F5F5F5F5F5F5F5F5F5F5F5F5F5F5F5F5F5F5F5F5F5F5F5F5F5F5F5F5F5F5F5F5F5F5F5F5F5F5F5F5F5F5F5F5F5F5F5F5F5F5F5F5F5F5F5F5F5F5F5F5F5F5F5F5F5E2E2F5E2EFEFE2F5E2E2E2E2E2E2E2E2E2E2E2E2E2E2E2E2E2E2E2E2E2E2E2E2E2E2E2E2E2E2E2E2E2E2E2
310
E2E2E2E2E2E2E2E2E2E2E2E2E2E2E2E2E2E2E2E2E2E2E2E2E2E2E2E2E2E2E2E2E2E2E2E2E2E2E2E2E2E2E2E2E2E2E2E2E2E2E2E2E2E2E2E2E2E2E2E2E2E2E2E2E2E2E2E2E2E2E2E2E2E2E2E2E2E2E2E2E2E2E2E2E2E2E2E2E2E2E2E2E2E2E2E2E2E2E2E2E2E2E2E2E2E2E2E2E2E2E2E2E2E2E2E2E2E2E2E2E2E2E2E2E2E2E2
310
E2E2E2E2E2E2E2E2E2E2E2E2F5E2EFEFE2F5E2E2E2E2E2E2E2E2F5F5F5F5F5F5F5F5F5E2E2E2E2E2E2E2E2E2E2E2E2E2E2E2E2F5F5F5F5F5F5F5F5F5E2E2E2E2E2E2E2E2E2E2E2E2E2E2E2E2F5F5F5F5F5F5F5F5F5E2E2E2E2E2E2E2E2E2E2E2E2E2E2E2E2F5F5F5F5F5F5F5F5E2E2E2E2E2E2E2E2E2E2E2E2E2E2E2E2F5F5
310
F5F5F5F5F5F5F5E2E2E2E2E2E2E2E2E2E2E2E2E2E2E2E2F5F5F5F5F5F5F5F5F5E2E2E2E2E2E2E2E2E2E2E2E2E2E2E2E2F5F5F5F5F5F5F5F5F5E2E2E2E2E2E2E2E2F5E2EFEFE2F5F5F5F5F5F5F5F5F5F5F5F5F5F5F5F5F5F5F5F5F5F5F5F5F5F5F5F5F5F5F5F5F5F5F5F5F5F5F5F5F5F5F5F5F5F5F5F5F5F5F5F5F5F5F5F5F5
310
F5F5F5F5F5F5F5F5F5F5F5F5F5F5F5F5F5F5F5F5F5F5F5F5F5F5F5F5F5F5F5F5F5F5F5F5F5F5F5F5F5F5F5F5F5F5F5F5F5F5F5F5F5F5F5F5F5F5F5F5F5F5F5F5F5F5F5F5F5F5F5F5F5F5F5F5F5F5F5F5F5F5F5F5F5F5F5F5F5F5F5F5F5F5F5F5F5F5F5F5F5F5F5F5F5F5F5F5F5F5F5F5F5F5F5F5F5F5F5E2EFEFE2E2E2E2E2
310
E2E2E2E2E2E2E2E2E2E2E2E2E2E2E2E2E2E2E2E2E2E2E2E2E2E2E2E2E2E2E2E2E2E2E2E2E2E2E2E2E2E2E2E2E2E2E2E2E2E2E2E2E2E2E2E2E2E2E2E2E2E2E2E2E2E2E2E2E2E2E2E2E2E2E2E2E2E2E2E2E2E2E2E2E2E2E2E2E2E2E2E2E2E2E2E2E2E2E2E2E2E2E2E2E2E2E2E2E2E2E2E2E2E2E2E2E2E2E2E2E2E2E2E2E2E2E2
310
E2E2E2E2E2E2E2E2E2E2E2E2E2E2E2E2E2E2E2E2E2E2E2E2E2E2E2E2E2E2E2E2E2E2E2E2E2E2E2E2E2E2E2E2E2E2EFEF
  0
XRECORD
  5
5C2C
102
{ACAD_REACTORS
330
5C2B
102
}
330
5C2B
100
AcDbXrecord
280
     1
102
SHADEPLOT
 70
     1
102
SHADEPLOTRESLEVEL
 70
     2
102
SHADEPLOTCUSTOMDPI
 70
   300
  0
XRECORD
  5
1E78
102
{ACAD_REACTORS
330
1E77
102
}
330
1E77
100
AcDbXrecord
280
     1
102
MATERIAL
148
0.0
149
0.0
149
0.0
 93
        0
 94
      127
282
     0
 72
     1
 77
     1
171
     1
175
     1
179
     1
273
     0
  0
XRECORD
  5
1E76
102
{ACAD_REACTORS
330
1E75
102
}
330
1E75
100
AcDbXrecord
280
     1
102
MATERIAL
148
0.0
149
0.0
149
0.0
 93
        0
 94
      127
282
     0
 72
     1
 77
     1
171
     1
175
     1
179
     1
273
     0
  0
XRECORD
  5
1E7A
102
{ACAD_REACTORS
330
1E79
102
}
330
1E79
100
AcDbXrecord
280
     1
102
MATERIAL
148
0.0
149
0.0
149
0.0
 93
        0
 94
      127
282
     0
 72
     1
 77
     1
171
     1
175
     1
179
     1
273
     0
  0
CELLSTYLEMAP
  5
5C28
102
{ACAD_REACTORS
330
5BD7
102
}
330
5BD7
100
AcDbCellStyleMap
 90
        3
300
CELLSTYLE
  1
TABLEFORMAT_BEGIN
 90
        5
170
     1
 91
        0
 92
    32768
 62
   257
 93
        1
300
CONTENTFORMAT
  1
CONTENTFORMAT_BEGIN
 90
        0
 91
        0
 92
      512
 93
        0
300

 40
0.0
140
1.0
 94
        5
 62
     0
340
11
144
6.0
309
CONTENTFORMAT_END
171
     1
301
MARGIN
  1
CELLMARGIN_BEGIN
 40
1.5
 40
1.5
 40
1.5
 40
1.5
 40
0.18
 40
0.18
309
CELLMARGIN_END
 94
        6
 95
        1
302
GRIDFORMAT
  1
GRIDFORMAT_BEGIN
 90
        0
 91
        1
 62
     0
 92
       -2
340
0
 93
        0
 40
0.045
309
GRIDFORMAT_END
 95
        2
302
GRIDFORMAT
  1
GRIDFORMAT_BEGIN
 90
        0
 91
        1
 62
     0
 92
       -2
340
0
 93
        0
 40
0.045
309
GRIDFORMAT_END
 95
        4
302
GRIDFORMAT
  1
GRIDFORMAT_BEGIN
 90
        0
 91
        1
 62
     0
 92
       -2
340
0
 93
        0
 40
0.045
309
GRIDFORMAT_END
 95
        8
302
GRIDFORMAT
  1
GRIDFORMAT_BEGIN
 90
        0
 91
        1
 62
     0
 92
       -2
340
0
 93
        0
 40
0.045
309
GRIDFORMAT_END
 95
       16
302
GRIDFORMAT
  1
GRIDFORMAT_BEGIN
 90
        0
 91
        1
 62
     0
 92
       -2
340
0
 93
        0
 40
0.045
309
GRIDFORMAT_END
 95
       32
302
GRIDFORMAT
  1
GRIDFORMAT_BEGIN
 90
        0
 91
        1
 62
     0
 92
       -2
340
0
 93
        0
 40
0.045
309
GRIDFORMAT_END
309
TABLEFORMAT_END
  1
CELLSTYLE_BEGIN
 90
        1
 91
        1
300
_TITLE
309
CELLSTYLE_END
300
CELLSTYLE
  1
TABLEFORMAT_BEGIN
 90
        5
170
     1
 91
        0
 92
        0
 62
   257
 93
        1
300
CONTENTFORMAT
  1
CONTENTFORMAT_BEGIN
 90
        0
 91
        0
 92
      512
 93
        0
300

 40
0.0
140
1.0
 94
        5
 62
     0
340
11
144
4.5
309
CONTENTFORMAT_END
171
     1
301
MARGIN
  1
CELLMARGIN_BEGIN
 40
1.5
 40
1.5
 40
1.5
 40
1.5
 40
0.18
 40
0.18
309
CELLMARGIN_END
 94
        6
 95
        1
302
GRIDFORMAT
  1
GRIDFORMAT_BEGIN
 90
        0
 91
        1
 62
     0
 92
       -2
340
0
 93
        0
 40
0.045
309
GRIDFORMAT_END
 95
        2
302
GRIDFORMAT
  1
GRIDFORMAT_BEGIN
 90
        0
 91
        1
 62
     0
 92
       -2
340
0
 93
        0
 40
0.045
309
GRIDFORMAT_END
 95
        4
302
GRIDFORMAT
  1
GRIDFORMAT_BEGIN
 90
        0
 91
        1
 62
     0
 92
       -2
340
0
 93
        0
 40
0.045
309
GRIDFORMAT_END
 95
        8
302
GRIDFORMAT
  1
GRIDFORMAT_BEGIN
 90
        0
 91
        1
 62
     0
 92
       -2
340
0
 93
        0
 40
0.045
309
GRIDFORMAT_END
 95
       16
302
GRIDFORMAT
  1
GRIDFORMAT_BEGIN
 90
        0
 91
        1
 62
     0
 92
       -2
340
0
 93
        0
 40
0.045
309
GRIDFORMAT_END
 95
       32
302
GRIDFORMAT
  1
GRIDFORMAT_BEGIN
 90
        0
 91
        1
 62
     0
 92
       -2
340
0
 93
        0
 40
0.045
309
GRIDFORMAT_END
309
TABLEFORMAT_END
  1
CELLSTYLE_BEGIN
 90
        2
 91
        1
300
_HEADER
309
CELLSTYLE_END
300
CELLSTYLE
  1
TABLEFORMAT_BEGIN
 90
        5
170
     1
 91
        0
 92
        0
 62
   257
 93
        1
300
CONTENTFORMAT
  1
CONTENTFORMAT_BEGIN
 90
        0
 91
        0
 92
      512
 93
        0
300

 40
0.0
140
1.0
 94
        2
 62
     0
340
11
144
4.5
309
CONTENTFORMAT_END
171
     1
301
MARGIN
  1
CELLMARGIN_BEGIN
 40
1.5
 40
1.5
 40
1.5
 40
1.5
 40
0.18
 40
0.18
309
CELLMARGIN_END
 94
        6
 95
        1
302
GRIDFORMAT
  1
GRIDFORMAT_BEGIN
 90
        0
 91
        1
 62
     0
 92
       -2
340
0
 93
        0
 40
0.045
309
GRIDFORMAT_END
 95
        2
302
GRIDFORMAT
  1
GRIDFORMAT_BEGIN
 90
        0
 91
        1
 62
     0
 92
       -2
340
0
 93
        0
 40
0.045
309
GRIDFORMAT_END
 95
        4
302
GRIDFORMAT
  1
GRIDFORMAT_BEGIN
 90
        0
 91
        1
 62
     0
 92
       -2
340
0
 93
        0
 40
0.045
309
GRIDFORMAT_END
 95
        8
302
GRIDFORMAT
  1
GRIDFORMAT_BEGIN
 90
        0
 91
        1
 62
     0
 92
       -2
340
0
 93
        0
 40
0.045
309
GRIDFORMAT_END
 95
       16
302
GRIDFORMAT
  1
GRIDFORMAT_BEGIN
 90
        0
 91
        1
 62
     0
 92
       -2
340
0
 93
        0
 40
0.045
309
GRIDFORMAT_END
 95
       32
302
GRIDFORMAT
  1
GRIDFORMAT_BEGIN
 90
        0
 91
        1
 62
     0
 92
       -2
340
0
 93
        0
 40
0.045
309
GRIDFORMAT_END
309
TABLEFORMAT_END
  1
CELLSTYLE_BEGIN
 90
        3
 91
        2
300
_DATA
309
CELLSTYLE_END
  0
XRECORD
  5
5C2D
102
{ACAD_REACTORS
330
5BD7
102
}
330
5BD7
100
AcDbXrecord
280
     1
102
ACAD_ROUNDTRIP_PRE2007_TABLESTYLE
 90
      512
 91
        0
  1

 92
      512
 93
        0
  2

 94
      512
 95
        0
  3

  0
XRECORD
  5
5C3A
102
{ACAD_REACTORS
330
5C39
102
}
330
5C39
100
AcDbXrecord
280
     1
102
RTVSPropertyOp0
 70
     1
102
RTVSPropertyOp1
 70
     1
102
RTVSPropertyOp2
 70
     1
102
RTVSPropertyOp3
 70
     1
102
RTVSPropertyOp4
 70
     1
102
RTVSPropertyOp5
 70
     1
102
RTVSPropertyOp6
 70
     1
102
RTVSPropertyOp7
 70
     1
102
RTVSPropertyOp8
 70
     1
102
RTVSPropertyOp9
 70
     1
102
RTVSPropertyOp10
 70
     1
102
RTVSPropertyOp11
 70
     1
102
RTVSPropertyOp12
 70
     1
102
RTVSPropertyOp13
 70
     1
102
RTVSPropertyOp14
 70
     1
102
RTVSPropertyOp15
 70
     1
102
RTVSPropertyOp16
 70
     1
102
RTVSPropertyOp17
 70
     1
102
RTVSPropertyOp18
 70
     1
102
RTVSPropertyOp19
 70
     1
102
RTVSPropertyOp20
 70
     1
102
RTVSPropertyOp21
 70
     1
102
RTVSPropertyOp22
 70
     1
102
RTVSPropertyOp23
 70
     1
102
RTVSPropertyOp24
 70
     1
102
RTVSPropertyOp25
 70
     1
102
RTVSPropertyOp26
 70
     1
102
RTVSPropertyOp27
 70
     1
102
RTVSPropertyOp28
 70
     1
102
RTVSPropertyOp29
 70
     1
102
RTVSPropertyOp30
 70
     1
102
RTVSPropertyOp31
 70
     1
102
RTVSPropertyOp32
 70
     1
  0
XRECORD
  5
5C3E
102
{ACAD_REACTORS
330
5C3D
102
}
330
5C3D
100
AcDbXrecord
280
     1
102
RTVSPropertyOp0
 70
     1
102
RTVSPropertyOp1
 70
     1
102
RTVSPropertyOp2
 70
     1
102
RTVSPropertyOp3
 70
     1
102
RTVSPropertyOp4
 70
     1
102
RTVSPropertyOp5
 70
     1
102
RTVSPropertyOp6
 70
     1
102
RTVSPropertyOp7
 70
     1
102
RTVSPropertyOp8
 70
     1
102
RTVSPropertyOp9
 70
     1
102
RTVSPropertyOp10
 70
     1
102
RTVSPropertyOp11
 70
     1
102
RTVSPropertyOp12
 70
     1
102
RTVSPropertyOp13
 70
     1
102
RTVSPropertyOp14
 70
     1
102
RTVSPropertyOp15
 70
     1
102
RTVSPropertyOp16
 70
     1
102
RTVSPropertyOp17
 70
     1
102
RTVSPropertyOp18
 70
     1
102
RTVSPropertyOp19
 70
     1
102
RTVSPropertyOp20
 70
     1
102
RTVSPropertyOp21
 70
     1
102
RTVSPropertyOp22
 70
     1
102
RTVSPropertyOp23
 70
     1
102
RTVSPropertyOp24
 70
     1
102
RTVSPropertyOp25
 70
     1
102
RTVSPropertyOp26
 70
     1
102
RTVSPropertyOp27
 70
     1
102
RTVSPropertyOp28
 70
     1
102
RTVSPropertyOp29
 70
     1
102
RTVSPropertyOp30
 70
     1
102
RTVSPropertyOp31
 70
     1
102
RTVSPropertyOp32
 70
     1
  0
XRECORD
  5
5C3C
102
{ACAD_REACTORS
330
5C3B
102
}
330
5C3B
100
AcDbXrecord
280
     1
102
RTVSPropertyOp0
 70
     1
102
RTVSPropertyOp1
 70
     1
102
RTVSPropertyOp2
 70
     1
102
RTVSPropertyOp3
 70
     1
102
RTVSPropertyOp4
 70
     1
102
RTVSPropertyOp5
 70
     1
102
RTVSPropertyOp6
 70
     1
102
RTVSPropertyOp7
 70
     1
102
RTVSPropertyOp8
 70
     1
102
RTVSPropertyOp9
 70
     1
102
RTVSPropertyOp10
 70
     1
102
RTVSPropertyOp11
 70
     1
102
RTVSPropertyOp12
 70
     1
102
RTVSPropertyOp13
 70
     1
102
RTVSPropertyOp14
 70
     1
102
RTVSPropertyOp15
 70
     1
102
RTVSPropertyOp16
 70
     1
102
RTVSPropertyOp17
 70
     1
102
RTVSPropertyOp18
 70
     1
102
RTVSPropertyOp19
 70
     1
102
RTVSPropertyOp20
 70
     1
102
RTVSPropertyOp21
 70
     1
102
RTVSPropertyOp22
 70
     1
102
RTVSPropertyOp23
 70
     1
102
RTVSPropertyOp24
 70
     1
102
RTVSPropertyOp25
 70
     1
102
RTVSPropertyOp26
 70
     1
102
RTVSPropertyOp27
 70
     1
102
RTVSPropertyOp28
 70
     1
102
RTVSPropertyOp29
 70
     1
102
RTVSPropertyOp30
 70
     1
102
RTVSPropertyOp31
 70
     1
102
RTVSPropertyOp32
 70
     1
  0
XRECORD
  5
5C38
102
{ACAD_REACTORS
330
5C37
102
}
330
5C37
100
AcDbXrecord
280
     1
102
RTVSPropertyOp0
 70
     1
102
RTVSPropertyOp1
 70
     1
102
RTVSPropertyOp2
 70
     1
102
RTVSPropertyOp3
 70
     1
102
RTVSPropertyOp4
 70
     1
102
RTVSPropertyOp5
 70
     1
102
RTVSPropertyOp6
 70
     1
102
RTVSPropertyOp7
 70
     1
102
RTVSPropertyOp8
 70
     1
102
RTVSPropertyOp9
 70
     1
102
RTVSPropertyOp10
 70
     1
102
RTVSPropertyOp11
 70
     1
102
RTVSPropertyOp12
 70
     1
102
RTVSPropertyOp13
 70
     1
102
RTVSPropertyOp14
 70
     1
102
RTVSPropertyOp15
 70
     1
102
RTVSPropertyOp16
 70
     1
102
RTVSPropertyOp17
 70
     1
102
RTVSPropertyOp18
 70
     1
102
RTVSPropertyOp19
 70
     1
102
RTVSPropertyOp20
 70
     1
102
RTVSPropertyOp21
 70
     1
102
RTVSPropertyOp22
 70
     1
102
RTVSPropertyOp23
 70
     1
102
RTVSPropertyOp24
 70
     1
102
RTVSPropertyOp25
 70
     1
102
RTVSPropertyOp26
 70
     1
102
RTVSPropertyOp27
 70
     1
102
RTVSPropertyOp28
 70
     1
102
RTVSPropertyOp29
 70
     1
102
RTVSPropertyOp30
 70
     1
102
RTVSPropertyOp31
 70
     1
102
RTVSPropertyOp32
 70
     1
  0
XRECORD
  5
5C46
102
{ACAD_REACTORS
330
5C45
102
}
330
5C45
100
AcDbXrecord
280
     1
102
RTVSPropertyOp0
 70
     1
102
RTVSPropertyOp1
 70
     1
102
RTVSPropertyOp2
 70
     1
102
RTVSPropertyOp3
 70
     1
102
RTVSPropertyOp4
 70
     1
102
RTVSPropertyOp5
 70
     1
102
RTVSPropertyOp6
 70
     1
102
RTVSPropertyOp7
 70
     1
102
RTVSPropertyOp8
 70
     1
102
RTVSPropertyOp9
 70
     1
102
RTVSPropertyOp10
 70
     1
102
RTVSPropertyOp11
 70
     1
102
RTVSPropertyOp12
 70
     1
102
RTVSPropertyOp13
 70
     1
102
RTVSPropertyOp14
 70
     1
102
RTVSPropertyOp15
 70
     1
102
RTVSPropertyOp16
 70
     1
102
RTVSPropertyOp17
 70
     1
102
RTVSPropertyOp18
 70
     1
102
RTVSPropertyOp19
 70
     1
102
RTVSPropertyOp20
 70
     1
102
RTVSPropertyOp21
 70
     1
102
RTVSPropertyOp22
 70
     1
102
RTVSPropertyOp23
 70
     1
102
RTVSPropertyOp24
 70
     1
102
RTVSPropertyOp25
 70
     1
102
RTVSPropertyOp26
 70
     1
102
RTVSPropertyOp27
 70
     1
102
RTVSPropertyOp28
 70
     1
102
RTVSPropertyOp29
 70
     1
102
RTVSPropertyOp30
 70
     1
102
RTVSPropertyOp31
 70
     1
102
RTVSPropertyOp32
 70
     1
  0
XRECORD
  5
5C4E
102
{ACAD_REACTORS
330
5C4D
102
}
330
5C4D
100
AcDbXrecord
280
     1
102
RTVSPropertyOp0
 70
     1
102
RTVSPropertyOp1
 70
     1
102
RTVSPropertyOp2
 70
     1
102
RTVSPropertyOp3
 70
     1
102
RTVSPropertyOp4
 70
     1
102
RTVSPropertyOp5
 70
     1
102
RTVSPropertyOp6
 70
     1
102
RTVSPropertyOp7
 70
     1
102
RTVSPropertyOp8
 70
     1
102
RTVSPropertyOp9
 70
     1
102
RTVSPropertyOp10
 70
     1
102
RTVSPropertyOp11
 70
     1
102
RTVSPropertyOp12
 70
     1
102
RTVSPropertyOp13
 70
     1
102
RTVSPropertyOp14
 70
     1
102
RTVSPropertyOp15
 70
     1
102
RTVSPropertyOp16
 70
     1
102
RTVSPropertyOp17
 70
     1
102
RTVSPropertyOp18
 70
     1
102
RTVSPropertyOp19
 70
     1
102
RTVSPropertyOp20
 70
     1
102
RTVSPropertyOp21
 70
     1
102
RTVSPropertyOp22
 70
     1
102
RTVSPropertyOp23
 70
     1
102
RTVSPropertyOp24
 70
     1
102
RTVSPropertyOp25
 70
     1
102
RTVSPropertyOp26
 70
     1
102
RTVSPropertyOp27
 70
     1
102
RTVSPropertyOp28
 70
     1
102
RTVSPropertyOp29
 70
     1
102
RTVSPropertyOp30
 70
     1
102
RTVSPropertyOp31
 70
     1
102
RTVSPropertyOp32
 70
     1
  0
XRECORD
  5
5C40
102
{ACAD_REACTORS
330
5C3F
102
}
330
5C3F
100
AcDbXrecord
280
     1
102
RTVSPropertyOp0
 70
     1
102
RTVSPropertyOp1
 70
     1
102
RTVSPropertyOp2
 70
     1
102
RTVSPropertyOp3
 70
     1
102
RTVSPropertyOp4
 70
     1
102
RTVSPropertyOp5
 70
     1
102
RTVSPropertyOp6
 70
     1
102
RTVSPropertyOp7
 70
     1
102
RTVSPropertyOp8
 70
     1
102
RTVSPropertyOp9
 70
     1
102
RTVSPropertyOp10
 70
     1
102
RTVSPropertyOp11
 70
     1
102
RTVSPropertyOp12
 70
     1
102
RTVSPropertyOp13
 70
     1
102
RTVSPropertyOp14
 70
     1
102
RTVSPropertyOp15
 70
     1
102
RTVSPropertyOp16
 70
     1
102
RTVSPropertyOp17
 70
     1
102
RTVSPropertyOp18
 70
     1
102
RTVSPropertyOp19
 70
     1
102
RTVSPropertyOp20
 70
     1
102
RTVSPropertyOp21
 70
     1
102
RTVSPropertyOp22
 70
     1
102
RTVSPropertyOp23
 70
     1
102
RTVSPropertyOp24
 70
     1
102
RTVSPropertyOp25
 70
     1
102
RTVSPropertyOp26
 70
     1
102
RTVSPropertyOp27
 70
     1
102
RTVSPropertyOp28
 70
     1
102
RTVSPropertyOp29
 70
     1
102
RTVSPropertyOp30
 70
     1
102
RTVSPropertyOp31
 70
     1
102
RTVSPropertyOp32
 70
     1
  0
XRECORD
  5
5C44
102
{ACAD_REACTORS
330
5C43
102
}
330
5C43
100
AcDbXrecord
280
     1
102
RTVSPropertyOp0
 70
     1
102
RTVSPropertyOp1
 70
     1
102
RTVSPropertyOp2
 70
     1
102
RTVSPropertyOp3
 70
     1
102
RTVSPropertyOp4
 70
     1
102
RTVSPropertyOp5
 70
     1
102
RTVSPropertyOp6
 70
     1
102
RTVSPropertyOp7
 70
     1
102
RTVSPropertyOp8
 70
     1
102
RTVSPropertyOp9
 70
     1
102
RTVSPropertyOp10
 70
     1
102
RTVSPropertyOp11
 70
     1
102
RTVSPropertyOp12
 70
     1
102
RTVSPropertyOp13
 70
     1
102
RTVSPropertyOp14
 70
     1
102
RTVSPropertyOp15
 70
     1
102
RTVSPropertyOp16
 70
     1
102
RTVSPropertyOp17
 70
     1
102
RTVSPropertyOp18
 70
     1
102
RTVSPropertyOp19
 70
     1
102
RTVSPropertyOp20
 70
     1
102
RTVSPropertyOp21
 70
     1
102
RTVSPropertyOp22
 70
     1
102
RTVSPropertyOp23
 70
     1
102
RTVSPropertyOp24
 70
     1
102
RTVSPropertyOp25
 70
     1
102
RTVSPropertyOp26
 70
     1
102
RTVSPropertyOp27
 70
     1
102
RTVSPropertyOp28
 70
     1
102
RTVSPropertyOp29
 70
     1
102
RTVSPropertyOp30
 70
     1
102
RTVSPropertyOp31
 70
     1
102
RTVSPropertyOp32
 70
     1
  0
XRECORD
  5
5C6C
102
{ACAD_REACTORS
330
5C6B
102
}
330
5C6B
100
AcDbXrecord
280
     1
102
RTVSPropertyOp0
 70
     0
102
RTVSPropertyOp1
 70
     0
102
RTVSPropertyOp2
 70
     0
102
RTVSPropertyOp3
 70
     0
102
RTVSPropertyOp4
 70
     0
102
RTVSPropertyOp5
 70
     0
102
RTVSPropertyOp6
 70
     0
102
RTVSPropertyOp7
 70
     0
102
RTVSPropertyOp8
 70
     0
102
RTVSPropertyOp9
 70
     0
102
RTVSPropertyOp10
 70
     0
102
RTVSPropertyOp11
 70
     0
102
RTVSPropertyOp12
 70
     0
102
RTVSPropertyOp13
 70
     0
102
RTVSPropertyOp14
 70
     2
102
RTVSPropertyOp15
 70
     0
102
RTVSPropertyOp16
 70
     0
102
RTVSPropertyOp17
 70
     0
102
RTVSPropertyOp18
 70
     0
102
RTVSPropertyOp19
 70
     0
102
RTVSPropertyOp20
 70
     0
102
RTVSPropertyOp21
 70
     0
102
RTVSPropertyOp22
 70
     0
102
RTVSPropertyOp23
 70
     0
102
RTVSPropertyOp24
 70
     0
102
RTVSPropertyOp25
 70
     0
102
RTVSPropertyOp26
 70
     0
102
RTVSPropertyOp27
 70
     0
102
RTVSPropertyOp28
 70
     0
102
RTVSPropertyOp29
 70
     0
102
RTVSPropertyOp30
 70
     0
102
RTVSPropertyOp31
 70
     0
102
RTVSPropertyOp32
 70
     0
  0
XRECORD
  5
5C4C
102
{ACAD_REACTORS
330
5C4B
102
}
330
5C4B
100
AcDbXrecord
280
     1
102
RTVSPropertyOp0
 70
     1
102
RTVSPropertyOp1
 70
     1
102
RTVSPropertyOp2
 70
     1
102
RTVSPropertyOp3
 70
     1
102
RTVSPropertyOp4
 70
     1
102
RTVSPropertyOp5
 70
     1
102
RTVSPropertyOp6
 70
     1
102
RTVSPropertyOp7
 70
     1
102
RTVSPropertyOp8
 70
     1
102
RTVSPropertyOp9
 70
     1
102
RTVSPropertyOp10
 70
     1
102
RTVSPropertyOp11
 70
     1
102
RTVSPropertyOp12
 70
     1
102
RTVSPropertyOp13
 70
     1
102
RTVSPropertyOp14
 70
     1
102
RTVSPropertyOp15
 70
     1
102
RTVSPropertyOp16
 70
     1
102
RTVSPropertyOp17
 70
     1
102
RTVSPropertyOp18
 70
     1
102
RTVSPropertyOp19
 70
     1
102
RTVSPropertyOp20
 70
     1
102
RTVSPropertyOp21
 70
     1
102
RTVSPropertyOp22
 70
     1
102
RTVSPropertyOp23
 70
     1
102
RTVSPropertyOp24
 70
     1
102
RTVSPropertyOp25
 70
     1
102
RTVSPropertyOp26
 70
     1
102
RTVSPropertyOp27
 70
     1
102
RTVSPropertyOp28
 70
     1
102
RTVSPropertyOp29
 70
     1
102
RTVSPropertyOp30
 70
     1
102
RTVSPropertyOp31
 70
     1
102
RTVSPropertyOp32
 70
     1
  0
XRECORD
  5
5C30
102
{ACAD_REACTORS
330
5C2F
102
}
330
5C2F
100
AcDbXrecord
280
     1
102
RTVSPropertyOp0
 70
     1
102
RTVSPropertyOp1
 70
     1
102
RTVSPropertyOp2
 70
     1
102
RTVSPropertyOp3
 70
     1
102
RTVSPropertyOp4
 70
     1
102
RTVSPropertyOp5
 70
     1
102
RTVSPropertyOp6
 70
     1
102
RTVSPropertyOp7
 70
     1
102
RTVSPropertyOp8
 70
     1
102
RTVSPropertyOp9
 70
     1
102
RTVSPropertyOp10
 70
     1
102
RTVSPropertyOp11
 70
     1
102
RTVSPropertyOp12
 70
     1
102
RTVSPropertyOp13
 70
     1
102
RTVSPropertyOp14
 70
     1
102
RTVSPropertyOp15
 70
     1
102
RTVSPropertyOp16
 70
     1
102
RTVSPropertyOp17
 70
     1
102
RTVSPropertyOp18
 70
     1
102
RTVSPropertyOp19
 70
     1
102
RTVSPropertyOp20
 70
     1
102
RTVSPropertyOp21
 70
     1
102
RTVSPropertyOp22
 70
     1
102
RTVSPropertyOp23
 70
     1
102
RTVSPropertyOp24
 70
     1
102
RTVSPropertyOp25
 70
     1
102
RTVSPropertyOp26
 70
     1
102
RTVSPropertyOp27
 70
     1
102
RTVSPropertyOp28
 70
     1
102
RTVSPropertyOp29
 70
     1
102
RTVSPropertyOp30
 70
     1
102
RTVSPropertyOp31
 70
     1
102
RTVSPropertyOp32
 70
     1
  0
XRECORD
  5
5C32
102
{ACAD_REACTORS
330
5C31
102
}
330
5C31
100
AcDbXrecord
280
     1
102
RTVSPropertyOp0
 70
     1
102
RTVSPropertyOp1
 70
     1
102
RTVSPropertyOp2
 70
     1
102
RTVSPropertyOp3
 70
     1
102
RTVSPropertyOp4
 70
     1
102
RTVSPropertyOp5
 70
     1
102
RTVSPropertyOp6
 70
     1
102
RTVSPropertyOp7
 70
     1
102
RTVSPropertyOp8
 70
     1
102
RTVSPropertyOp9
 70
     1
102
RTVSPropertyOp10
 70
     1
102
RTVSPropertyOp11
 70
     1
102
RTVSPropertyOp12
 70
     1
102
RTVSPropertyOp13
 70
     1
102
RTVSPropertyOp14
 70
     1
102
RTVSPropertyOp15
 70
     1
102
RTVSPropertyOp16
 70
     1
102
RTVSPropertyOp17
 70
     1
102
RTVSPropertyOp18
 70
     1
102
RTVSPropertyOp19
 70
     1
102
RTVSPropertyOp20
 70
     1
102
RTVSPropertyOp21
 70
     1
102
RTVSPropertyOp22
 70
     1
102
RTVSPropertyOp23
 70
     1
102
RTVSPropertyOp24
 70
     1
102
RTVSPropertyOp25
 70
     1
102
RTVSPropertyOp26
 70
     1
102
RTVSPropertyOp27
 70
     1
102
RTVSPropertyOp28
 70
     1
102
RTVSPropertyOp29
 70
     1
102
RTVSPropertyOp30
 70
     1
102
RTVSPropertyOp31
 70
     1
102
RTVSPropertyOp32
 70
     1
  0
XRECORD
  5
5C34
102
{ACAD_REACTORS
330
5C33
102
}
330
5C33
100
AcDbXrecord
280
     1
102
RTVSPropertyOp0
 70
     1
102
RTVSPropertyOp1
 70
     1
102
RTVSPropertyOp2
 70
     1
102
RTVSPropertyOp3
 70
     1
102
RTVSPropertyOp4
 70
     1
102
RTVSPropertyOp5
 70
     1
102
RTVSPropertyOp6
 70
     1
102
RTVSPropertyOp7
 70
     1
102
RTVSPropertyOp8
 70
     1
102
RTVSPropertyOp9
 70
     1
102
RTVSPropertyOp10
 70
     1
102
RTVSPropertyOp11
 70
     1
102
RTVSPropertyOp12
 70
     1
102
RTVSPropertyOp13
 70
     1
102
RTVSPropertyOp14
 70
     1
102
RTVSPropertyOp15
 70
     1
102
RTVSPropertyOp16
 70
     1
102
RTVSPropertyOp17
 70
     1
102
RTVSPropertyOp18
 70
     1
102
RTVSPropertyOp19
 70
     1
102
RTVSPropertyOp20
 70
     1
102
RTVSPropertyOp21
 70
     1
102
RTVSPropertyOp22
 70
     1
102
RTVSPropertyOp23
 70
     1
102
RTVSPropertyOp24
 70
     1
102
RTVSPropertyOp25
 70
     1
102
RTVSPropertyOp26
 70
     1
102
RTVSPropertyOp27
 70
     1
102
RTVSPropertyOp28
 70
     1
102
RTVSPropertyOp29
 70
     1
102
RTVSPropertyOp30
 70
     1
102
RTVSPropertyOp31
 70
     1
102
RTVSPropertyOp32
 70
     1
  0
XRECORD
  5
5C36
102
{ACAD_REACTORS
330
5C35
102
}
330
5C35
100
AcDbXrecord
280
     1
102
RTVSPropertyOp0
 70
     1
102
RTVSPropertyOp1
 70
     1
102
RTVSPropertyOp2
 70
     1
102
RTVSPropertyOp3
 70
     1
102
RTVSPropertyOp4
 70
     1
102
RTVSPropertyOp5
 70
     1
102
RTVSPropertyOp6
 70
     1
102
RTVSPropertyOp7
 70
     1
102
RTVSPropertyOp8
 70
     1
102
RTVSPropertyOp9
 70
     1
102
RTVSPropertyOp10
 70
     1
102
RTVSPropertyOp11
 70
     1
102
RTVSPropertyOp12
 70
     1
102
RTVSPropertyOp13
 70
     1
102
RTVSPropertyOp14
 70
     1
102
RTVSPropertyOp15
 70
     1
102
RTVSPropertyOp16
 70
     1
102
RTVSPropertyOp17
 70
     1
102
RTVSPropertyOp18
 70
     1
102
RTVSPropertyOp19
 70
     1
102
RTVSPropertyOp20
 70
     1
102
RTVSPropertyOp21
 70
     1
102
RTVSPropertyOp22
 70
     1
102
RTVSPropertyOp23
 70
     1
102
RTVSPropertyOp24
 70
     1
102
RTVSPropertyOp25
 70
     1
102
RTVSPropertyOp26
 70
     1
102
RTVSPropertyOp27
 70
     1
102
RTVSPropertyOp28
 70
     1
102
RTVSPropertyOp29
 70
     1
102
RTVSPropertyOp30
 70
     1
102
RTVSPropertyOp31
 70
     1
102
RTVSPropertyOp32
 70
     1
  0
XRECORD
  5
5C5C
102
{ACAD_REACTORS
330
5C5B
102
}
330
5C5B
100
AcDbXrecord
280
     1
102
RTVSPropertyOp0
 70
     1
102
RTVSPropertyOp1
 70
     1
102
RTVSPropertyOp2
 70
     1
102
RTVSPropertyOp3
 70
     1
102
RTVSPropertyOp4
 70
     1
102
RTVSPropertyOp5
 70
     1
102
RTVSPropertyOp6
 70
     1
102
RTVSPropertyOp7
 70
     1
102
RTVSPropertyOp8
 70
     1
102
RTVSPropertyOp9
 70
     1
102
RTVSPropertyOp10
 70
     1
102
RTVSPropertyOp11
 70
     1
102
RTVSPropertyOp12
 70
     1
102
RTVSPropertyOp13
 70
     1
102
RTVSPropertyOp14
 70
     1
102
RTVSPropertyOp15
 70
     1
102
RTVSPropertyOp16
 70
     1
102
RTVSPropertyOp17
 70
     1
102
RTVSPropertyOp18
 70
     1
102
RTVSPropertyOp19
 70
     1
102
RTVSPropertyOp20
 70
     1
102
RTVSPropertyOp21
 70
     1
102
RTVSPropertyOp22
 70
     1
102
RTVSPropertyOp23
 70
     1
102
RTVSPropertyOp24
 70
     1
102
RTVSPropertyOp25
 70
     1
102
RTVSPropertyOp26
 70
     1
102
RTVSPropertyOp27
 70
     1
102
RTVSPropertyOp28
 70
     1
102
RTVSPropertyOp29
 70
     1
102
RTVSPropertyOp30
 70
     1
102
RTVSPropertyOp31
 70
     1
102
RTVSPropertyOp32
 70
     1
  0
XRECORD
  5
5C68
102
{ACAD_REACTORS
330
5C67
102
}
330
5C67
100
AcDbXrecord
280
     1
102
RTVSPropertyOp0
 70
     0
102
RTVSPropertyOp1
 70
     0
102
RTVSPropertyOp2
 70
     0
102
RTVSPropertyOp3
 70
     0
102
RTVSPropertyOp4
 70
     0
102
RTVSPropertyOp5
 70
     0
102
RTVSPropertyOp6
 70
     0
102
RTVSPropertyOp7
 70
     0
102
RTVSPropertyOp8
 70
     0
102
RTVSPropertyOp9
 70
     0
102
RTVSPropertyOp10
 70
     0
102
RTVSPropertyOp11
 70
     0
102
RTVSPropertyOp12
 70
     0
102
RTVSPropertyOp13
 70
     0
102
RTVSPropertyOp14
 70
     2
102
RTVSPropertyOp15
 70
     0
102
RTVSPropertyOp16
 70
     0
102
RTVSPropertyOp17
 70
     0
102
RTVSPropertyOp18
 70
     0
102
RTVSPropertyOp19
 70
     0
102
RTVSPropertyOp20
 70
     0
102
RTVSPropertyOp21
 70
     0
102
RTVSPropertyOp22
 70
     0
102
RTVSPropertyOp23
 70
     0
102
RTVSPropertyOp24
 70
     0
102
RTVSPropertyOp25
 70
     0
102
RTVSPropertyOp26
 70
     0
102
RTVSPropertyOp27
 70
     0
102
RTVSPropertyOp28
 70
     0
102
RTVSPropertyOp29
 70
     0
102
RTVSPropertyOp30
 70
     0
102
RTVSPropertyOp31
 70
     0
102
RTVSPropertyOp32
 70
     0
  0
XRECORD
  5
5C4A
102
{ACAD_REACTORS
330
5C49
102
}
330
5C49
100
AcDbXrecord
280
     1
102
RTVSPropertyOp0
 70
     1
102
RTVSPropertyOp1
 70
     1
102
RTVSPropertyOp2
 70
     1
102
RTVSPropertyOp3
 70
     1
102
RTVSPropertyOp4
 70
     1
102
RTVSPropertyOp5
 70
     1
102
RTVSPropertyOp6
 70
     1
102
RTVSPropertyOp7
 70
     1
102
RTVSPropertyOp8
 70
     1
102
RTVSPropertyOp9
 70
     1
102
RTVSPropertyOp10
 70
     1
102
RTVSPropertyOp11
 70
     1
102
RTVSPropertyOp12
 70
     1
102
RTVSPropertyOp13
 70
     1
102
RTVSPropertyOp14
 70
     1
102
RTVSPropertyOp15
 70
     1
102
RTVSPropertyOp16
 70
     1
102
RTVSPropertyOp17
 70
     1
102
RTVSPropertyOp18
 70
     1
102
RTVSPropertyOp19
 70
     1
102
RTVSPropertyOp20
 70
     1
102
RTVSPropertyOp21
 70
     1
102
RTVSPropertyOp22
 70
     1
102
RTVSPropertyOp23
 70
     1
102
RTVSPropertyOp24
 70
     1
102
RTVSPropertyOp25
 70
     1
102
RTVSPropertyOp26
 70
     1
102
RTVSPropertyOp27
 70
     1
102
RTVSPropertyOp28
 70
     1
102
RTVSPropertyOp29
 70
     1
102
RTVSPropertyOp30
 70
     1
102
RTVSPropertyOp31
 70
     1
102
RTVSPropertyOp32
 70
     1
  0
XRECORD
  5
5C6A
102
{ACAD_REACTORS
330
5C69
102
}
330
5C69
100
AcDbXrecord
280
     1
102
RTVSPropertyOp0
 70
     0
102
RTVSPropertyOp1
 70
     0
102
RTVSPropertyOp2
 70
     0
102
RTVSPropertyOp3
 70
     0
102
RTVSPropertyOp4
 70
     0
102
RTVSPropertyOp5
 70
     0
102
RTVSPropertyOp6
 70
     0
102
RTVSPropertyOp7
 70
     0
102
RTVSPropertyOp8
 70
     0
102
RTVSPropertyOp9
 70
     0
102
RTVSPropertyOp10
 70
     0
102
RTVSPropertyOp11
 70
     0
102
RTVSPropertyOp12
 70
     0
102
RTVSPropertyOp13
 70
     0
102
RTVSPropertyOp14
 70
     2
102
RTVSPropertyOp15
 70
     0
102
RTVSPropertyOp16
 70
     0
102
RTVSPropertyOp17
 70
     0
102
RTVSPropertyOp18
 70
     0
102
RTVSPropertyOp19
 70
     0
102
RTVSPropertyOp20
 70
     0
102
RTVSPropertyOp21
 70
     0
102
RTVSPropertyOp22
 70
     0
102
RTVSPropertyOp23
 70
     0
102
RTVSPropertyOp24
 70
     0
102
RTVSPropertyOp25
 70
     0
102
RTVSPropertyOp26
 70
     0
102
RTVSPropertyOp27
 70
     0
102
RTVSPropertyOp28
 70
     0
102
RTVSPropertyOp29
 70
     0
102
RTVSPropertyOp30
 70
     0
102
RTVSPropertyOp31
 70
     0
102
RTVSPropertyOp32
 70
     0
  0
XRECORD
  5
5C42
102
{ACAD_REACTORS
330
5C41
102
}
330
5C41
100
AcDbXrecord
280
     1
102
RTVSPropertyOp0
 70
     1
102
RTVSPropertyOp1
 70
     1
102
RTVSPropertyOp2
 70
     1
102
RTVSPropertyOp3
 70
     1
102
RTVSPropertyOp4
 70
     1
102
RTVSPropertyOp5
 70
     1
102
RTVSPropertyOp6
 70
     1
102
RTVSPropertyOp7
 70
     1
102
RTVSPropertyOp8
 70
     1
102
RTVSPropertyOp9
 70
     1
102
RTVSPropertyOp10
 70
     1
102
RTVSPropertyOp11
 70
     1
102
RTVSPropertyOp12
 70
     1
102
RTVSPropertyOp13
 70
     1
102
RTVSPropertyOp14
 70
     1
102
RTVSPropertyOp15
 70
     1
102
RTVSPropertyOp16
 70
     1
102
RTVSPropertyOp17
 70
     1
102
RTVSPropertyOp18
 70
     1
102
RTVSPropertyOp19
 70
     1
102
RTVSPropertyOp20
 70
     1
102
RTVSPropertyOp21
 70
     1
102
RTVSPropertyOp22
 70
     1
102
RTVSPropertyOp23
 70
     1
102
RTVSPropertyOp24
 70
     1
102
RTVSPropertyOp25
 70
     1
102
RTVSPropertyOp26
 70
     1
102
RTVSPropertyOp27
 70
     1
102
RTVSPropertyOp28
 70
     1
102
RTVSPropertyOp29
 70
     1
102
RTVSPropertyOp30
 70
     1
102
RTVSPropertyOp31
 70
     1
102
RTVSPropertyOp32
 70
     1
  0
XRECORD
  5
5C66
102
{ACAD_REACTORS
330
5C65
102
}
330
5C65
100
AcDbXrecord
280
     1
102
RTVSPropertyOp0
 70
     1
102
RTVSPropertyOp1
 70
     1
102
RTVSPropertyOp2
 70
     1
102
RTVSPropertyOp3
 70
     1
102
RTVSPropertyOp4
 70
     1
102
RTVSPropertyOp5
 70
     1
102
RTVSPropertyOp6
 70
     1
102
RTVSPropertyOp7
 70
     1
102
RTVSPropertyOp8
 70
     1
102
RTVSPropertyOp9
 70
     1
102
RTVSPropertyOp10
 70
     1
102
RTVSPropertyOp11
 70
     1
102
RTVSPropertyOp12
 70
     1
102
RTVSPropertyOp13
 70
     1
102
RTVSPropertyOp14
 70
     1
102
RTVSPropertyOp15
 70
     1
102
RTVSPropertyOp16
 70
     1
102
RTVSPropertyOp17
 70
     1
102
RTVSPropertyOp18
 70
     1
102
RTVSPropertyOp19
 70
     1
102
RTVSPropertyOp20
 70
     1
102
RTVSPropertyOp21
 70
     1
102
RTVSPropertyOp22
 70
     1
102
RTVSPropertyOp23
 70
     1
102
RTVSPropertyOp24
 70
     1
102
RTVSPropertyOp25
 70
     1
102
RTVSPropertyOp26
 70
     1
102
RTVSPropertyOp27
 70
     1
102
RTVSPropertyOp28
 70
     1
102
RTVSPropertyOp29
 70
     1
102
RTVSPropertyOp30
 70
     1
102
RTVSPropertyOp31
 70
     1
102
RTVSPropertyOp32
 70
     1
  0
XRECORD
  5
5C64
102
{ACAD_REACTORS
330
5C63
102
}
330
5C63
100
AcDbXrecord
280
     1
102
RTVSPropertyOp0
 70
     1
102
RTVSPropertyOp1
 70
     1
102
RTVSPropertyOp2
 70
     1
102
RTVSPropertyOp3
 70
     1
102
RTVSPropertyOp4
 70
     1
102
RTVSPropertyOp5
 70
     1
102
RTVSPropertyOp6
 70
     1
102
RTVSPropertyOp7
 70
     1
102
RTVSPropertyOp8
 70
     1
102
RTVSPropertyOp9
 70
     1
102
RTVSPropertyOp10
 70
     1
102
RTVSPropertyOp11
 70
     1
102
RTVSPropertyOp12
 70
     1
102
RTVSPropertyOp13
 70
     1
102
RTVSPropertyOp14
 70
     1
102
RTVSPropertyOp15
 70
     1
102
RTVSPropertyOp16
 70
     1
102
RTVSPropertyOp17
 70
     1
102
RTVSPropertyOp18
 70
     1
102
RTVSPropertyOp19
 70
     1
102
RTVSPropertyOp20
 70
     1
102
RTVSPropertyOp21
 70
     1
102
RTVSPropertyOp22
 70
     1
102
RTVSPropertyOp23
 70
     1
102
RTVSPropertyOp24
 70
     1
102
RTVSPropertyOp25
 70
     1
102
RTVSPropertyOp26
 70
     1
102
RTVSPropertyOp27
 70
     1
102
RTVSPropertyOp28
 70
     1
102
RTVSPropertyOp29
 70
     1
102
RTVSPropertyOp30
 70
     1
102
RTVSPropertyOp31
 70
     1
102
RTVSPropertyOp32
 70
     1
  0
XRECORD
  5
5C5E
102
{ACAD_REACTORS
330
5C5D
102
}
330
5C5D
100
AcDbXrecord
280
     1
102
RTVSPropertyOp0
 70
     1
102
RTVSPropertyOp1
 70
     1
102
RTVSPropertyOp2
 70
     1
102
RTVSPropertyOp3
 70
     1
102
RTVSPropertyOp4
 70
     1
102
RTVSPropertyOp5
 70
     1
102
RTVSPropertyOp6
 70
     1
102
RTVSPropertyOp7
 70
     1
102
RTVSPropertyOp8
 70
     1
102
RTVSPropertyOp9
 70
     1
102
RTVSPropertyOp10
 70
     1
102
RTVSPropertyOp11
 70
     1
102
RTVSPropertyOp12
 70
     1
102
RTVSPropertyOp13
 70
     1
102
RTVSPropertyOp14
 70
     1
102
RTVSPropertyOp15
 70
     1
102
RTVSPropertyOp16
 70
     1
102
RTVSPropertyOp17
 70
     1
102
RTVSPropertyOp18
 70
     1
102
RTVSPropertyOp19
 70
     1
102
RTVSPropertyOp20
 70
     1
102
RTVSPropertyOp21
 70
     1
102
RTVSPropertyOp22
 70
     1
102
RTVSPropertyOp23
 70
     1
102
RTVSPropertyOp24
 70
     1
102
RTVSPropertyOp25
 70
     1
102
RTVSPropertyOp26
 70
     1
102
RTVSPropertyOp27
 70
     1
102
RTVSPropertyOp28
 70
     1
102
RTVSPropertyOp29
 70
     1
102
RTVSPropertyOp30
 70
     1
102
RTVSPropertyOp31
 70
     1
102
RTVSPropertyOp32
 70
     1
  0
XRECORD
  5
5C60
102
{ACAD_REACTORS
330
5C5F
102
}
330
5C5F
100
AcDbXrecord
280
     1
102
RTVSPropertyOp0
 70
     1
102
RTVSPropertyOp1
 70
     1
102
RTVSPropertyOp2
 70
     1
102
RTVSPropertyOp3
 70
     1
102
RTVSPropertyOp4
 70
     1
102
RTVSPropertyOp5
 70
     1
102
RTVSPropertyOp6
 70
     1
102
RTVSPropertyOp7
 70
     1
102
RTVSPropertyOp8
 70
     1
102
RTVSPropertyOp9
 70
     1
102
RTVSPropertyOp10
 70
     1
102
RTVSPropertyOp11
 70
     1
102
RTVSPropertyOp12
 70
     1
102
RTVSPropertyOp13
 70
     1
102
RTVSPropertyOp14
 70
     1
102
RTVSPropertyOp15
 70
     1
102
RTVSPropertyOp16
 70
     1
102
RTVSPropertyOp17
 70
     1
102
RTVSPropertyOp18
 70
     1
102
RTVSPropertyOp19
 70
     1
102
RTVSPropertyOp20
 70
     1
102
RTVSPropertyOp21
 70
     1
102
RTVSPropertyOp22
 70
     1
102
RTVSPropertyOp23
 70
     1
102
RTVSPropertyOp24
 70
     1
102
RTVSPropertyOp25
 70
     1
102
RTVSPropertyOp26
 70
     1
102
RTVSPropertyOp27
 70
     1
102
RTVSPropertyOp28
 70
     1
102
RTVSPropertyOp29
 70
     1
102
RTVSPropertyOp30
 70
     1
102
RTVSPropertyOp31
 70
     1
102
RTVSPropertyOp32
 70
     1
  0
XRECORD
  5
5C48
102
{ACAD_REACTORS
330
5C47
102
}
330
5C47
100
AcDbXrecord
280
     1
102
RTVSPropertyOp0
 70
     1
102
RTVSPropertyOp1
 70
     1
102
RTVSPropertyOp2
 70
     1
102
RTVSPropertyOp3
 70
     1
102
RTVSPropertyOp4
 70
     1
102
RTVSPropertyOp5
 70
     1
102
RTVSPropertyOp6
 70
     1
102
RTVSPropertyOp7
 70
     1
102
RTVSPropertyOp8
 70
     1
102
RTVSPropertyOp9
 70
     1
102
RTVSPropertyOp10
 70
     1
102
RTVSPropertyOp11
 70
     1
102
RTVSPropertyOp12
 70
     1
102
RTVSPropertyOp13
 70
     1
102
RTVSPropertyOp14
 70
     1
102
RTVSPropertyOp15
 70
     1
102
RTVSPropertyOp16
 70
     1
102
RTVSPropertyOp17
 70
     1
102
RTVSPropertyOp18
 70
     1
102
RTVSPropertyOp19
 70
     1
102
RTVSPropertyOp20
 70
     1
102
RTVSPropertyOp21
 70
     1
102
RTVSPropertyOp22
 70
     1
102
RTVSPropertyOp23
 70
     1
102
RTVSPropertyOp24
 70
     1
102
RTVSPropertyOp25
 70
     1
102
RTVSPropertyOp26
 70
     1
102
RTVSPropertyOp27
 70
     1
102
RTVSPropertyOp28
 70
     1
102
RTVSPropertyOp29
 70
     1
102
RTVSPropertyOp30
 70
     1
102
RTVSPropertyOp31
 70
     1
102
RTVSPropertyOp32
 70
     1
  0
XRECORD
  5
5C5A
102
{ACAD_REACTORS
330
5C59
102
}
330
5C59
100
AcDbXrecord
280
     1
102
RTVSPropertyOp0
 70
     1
102
RTVSPropertyOp1
 70
     1
102
RTVSPropertyOp2
 70
     1
102
RTVSPropertyOp3
 70
     1
102
RTVSPropertyOp4
 70
     1
102
RTVSPropertyOp5
 70
     1
102
RTVSPropertyOp6
 70
     1
102
RTVSPropertyOp7
 70
     1
102
RTVSPropertyOp8
 70
     1
102
RTVSPropertyOp9
 70
     1
102
RTVSPropertyOp10
 70
     1
102
RTVSPropertyOp11
 70
     1
102
RTVSPropertyOp12
 70
     1
102
RTVSPropertyOp13
 70
     1
102
RTVSPropertyOp14
 70
     1
102
RTVSPropertyOp15
 70
     1
102
RTVSPropertyOp16
 70
     1
102
RTVSPropertyOp17
 70
     1
102
RTVSPropertyOp18
 70
     1
102
RTVSPropertyOp19
 70
     1
102
RTVSPropertyOp20
 70
     1
102
RTVSPropertyOp21
 70
     1
102
RTVSPropertyOp22
 70
     1
102
RTVSPropertyOp23
 70
     1
102
RTVSPropertyOp24
 70
     1
102
RTVSPropertyOp25
 70
     1
102
RTVSPropertyOp26
 70
     1
102
RTVSPropertyOp27
 70
     1
102
RTVSPropertyOp28
 70
     1
102
RTVSPropertyOp29
 70
     1
102
RTVSPropertyOp30
 70
     1
102
RTVSPropertyOp31
 70
     1
102
RTVSPropertyOp32
 70
     1
  0
XRECORD
  5
5C62
102
{ACAD_REACTORS
330
5C61
102
}
330
5C61
100
AcDbXrecord
280
     1
102
RTVSPropertyOp0
 70
     1
102
RTVSPropertyOp1
 70
     1
102
RTVSPropertyOp2
 70
     1
102
RTVSPropertyOp3
 70
     1
102
RTVSPropertyOp4
 70
     1
102
RTVSPropertyOp5
 70
     1
102
RTVSPropertyOp6
 70
     1
102
RTVSPropertyOp7
 70
     1
102
RTVSPropertyOp8
 70
     1
102
RTVSPropertyOp9
 70
     1
102
RTVSPropertyOp10
 70
     1
102
RTVSPropertyOp11
 70
     1
102
RTVSPropertyOp12
 70
     1
102
RTVSPropertyOp13
 70
     1
102
RTVSPropertyOp14
 70
     1
102
RTVSPropertyOp15
 70
     1
102
RTVSPropertyOp16
 70
     1
102
RTVSPropertyOp17
 70
     1
102
RTVSPropertyOp18
 70
     1
102
RTVSPropertyOp19
 70
     1
102
RTVSPropertyOp20
 70
     1
102
RTVSPropertyOp21
 70
     1
102
RTVSPropertyOp22
 70
     1
102
RTVSPropertyOp23
 70
     1
102
RTVSPropertyOp24
 70
     1
102
RTVSPropertyOp25
 70
     1
102
RTVSPropertyOp26
 70
     1
102
RTVSPropertyOp27
 70
     1
102
RTVSPropertyOp28
 70
     1
102
RTVSPropertyOp29
 70
     1
102
RTVSPropertyOp30
 70
     1
102
RTVSPropertyOp31
 70
     1
102
RTVSPropertyOp32
 70
     1
  0
ENDSEC
  0
EOF
